[Jolly Roger] Плохой Санта / Bad Santa [Расширенная версия] (Терри Цвигофф / Terry Zwigoff) [2003 г., Драма, комедия, криминал, BDRip-AVC] Dub + VO [Дмитрий "Гоблин" Пучков] + Original (Eng) + Sub (Rus, Eng)

Ответить на тему
 
Автор
Сообщение

Пост 01-Янв-2014 11:27

[Q] 

erchine

-Плохой Санта / Bad Santa [Расширенная версия]- Год выпуска: 2003 г.
Производство: Германия, США
Жанр: Драма, комедия, криминал
Продолжительность: 01:39:16
Перевод: Профессиональный (полное дублирование) (со вставками одноголосого перевода на расширенные места)
Перевод 2: Профессиональный (одноголосый закадровый) Дмитрий "Гоблин" Пучков - содержит ненормативную лексику
Оригинальный аудиопоток: английский
Режиссер: Терри Цвигофф / Terry Zwigoff
В ролях: Билли Боб Торнтон, Тони Кокс, Бретт Келли, Лорен Грэм, Лорен Том, Берни Мак, Джон Риттер, Аджай Найду, Лорна Скотт, Харрисон Бикер
Описание: Вилли — необычный Санта-Клаус. Раз в год на Рождество он вместе со своим напарником грабит очередной универмаг. К тому же в прошлом он отсидел в тюрьме, был не единожды женат, а ныне Вилли — злостный бабник и пропойца. Он по-настоящему плохой, невыносимый Санта! Но нашелся мальчуган, который все-таки в него поверил. И Вилли придется творить настоящие чудеса, чтоб на сей раз довести задуманное до конца! Качество видео: BDRip-AVC
Контейнер: MKV
Видео кодек: H.264
Аудио кодек: AC3
Видео: MPEG4 Video (H264) 976x528 23.976fps 1793 Kbps
Аудио 1, 2, 3: Dolby AC3 48000Hz 6ch 448 Kbps / Dub / Goblin / Eng
Субтитры: русские (форсированные, полные, Гоблин), английские (полные), отключаемые-Зрителям, достигшим 16 лет
General
Unique ID : 206330631733648654389867227728496178386 (0x9B39D58EC9A4AA19A17E3F8DE01634D2)
Complete name : D:\Plohoj.Santa.2003.H.264.BDRip-AVC.JRG.mkv
Format : Matroska
Format version : Version 4 / Version 2
File size : 2.18 GiB
Duration : 1h 39mn
Overall bit rate : 3 139 Kbps
Movie name : The Jolly Roger Release Group by Pirat.CA
Encoded date : UTC 2013-12-31 08:36:15
Writing application : mkvmerge v6.3.0 ('You can't stop me!') built on Jun 28 2013 20:09:41
Writing library : libebml v1.3.0 + libmatroska v1.4.0
Video
ID : 1
Format : AVC
Format/Info : Advanced Video Codec
Format profile : High@L4.1
Format settings, CABAC : Yes
Format settings, ReFrames : 7 frames
Codec ID : V_MPEG4/ISO/AVC
Duration : 1h 39mn
Bit rate : 1 793 Kbps
Width : 976 pixels
Height : 528 pixels
Display aspect ratio : 1.85:1
Frame rate mode : Constant
Frame rate : 23.976 fps
Color space : YUV
Chroma subsampling : 4:2:0
Bit depth : 8 bits
Scan type : Progressive
Bits/(Pixel*Frame) : 0.145
Stream size : 1.20 GiB (55%)
Writing library : x264 core 130 r2273 b3065e6
Encoding settings : cabac=1 / ref=7 / deblock=1:0:0 / analyse=0x3:0x133 / me=umh / subme=10 / psy=1 / psy_rd=1.00:0.15 / mixed_ref=0 / me_range=24 / chroma_me=1 / trellis=2 / 8x8dct=1 / cqm=0 / deadzone=21,11 / fast_pskip=0 / chroma_qp_offset=-3 / threads=3 / lookahead_threads=1 / sliced_threads=0 / nr=0 / decimate=1 / interlaced=0 / bluray_compat=0 / constrained_intra=0 / bframes=6 / b_pyramid=2 / b_adapt=2 / b_bias=0 / direct=3 / weightb=1 / open_gop=0 / weightp=2 / keyint=250 / keyint_min=23 / scenecut=40 / intra_refresh=0 / rc_lookahead=50 / rc=2pass / mbtree=1 / bitrate=1793 / ratetol=1.0 / qcomp=0.60 / qpmin=0 / qpmax=69 / qpstep=4 / cplxblur=20.0 / qblur=0.5 / ip_ratio=1.40 / aq=1:1.00
Default : Yes
Forced : No
Audio #1
ID : 2
Format : AC-3
Format/Info : Audio Coding 3
Mode extension : CM (complete main)
Format settings, Endianness : Big
Codec ID : A_AC3
Duration : 1h 39mn
Bit rate mode : Constant
Bit rate : 448 Kbps
Channel(s) : 6 channels
Channel positions : Front: L C R, Side: L R, LFE
Sampling rate : 48.0 KHz
Bit depth : 16 bits
Compression mode : Lossy
Stream size : 318 MiB (14%)
Title : Dub
Language : Russian
Default : Yes
Forced : No
Audio #2
ID : 3
Format : AC-3
Format/Info : Audio Coding 3
Mode extension : CM (complete main)
Format settings, Endianness : Big
Codec ID : A_AC3
Duration : 1h 39mn
Bit rate mode : Constant
Bit rate : 448 Kbps
Channel(s) : 6 channels
Channel positions : Front: L C R, Side: L R, LFE
Sampling rate : 48.0 KHz
Bit depth : 16 bits
Compression mode : Lossy
Stream size : 318 MiB (14%)
Title : Goblin
Language : Russian
Default : No
Forced : No
Audio #3
ID : 4
Format : AC-3
Format/Info : Audio Coding 3
Mode extension : CM (complete main)
Format settings, Endianness : Big
Codec ID : A_AC3
Duration : 1h 39mn
Bit rate mode : Constant
Bit rate : 448 Kbps
Channel(s) : 6 channels
Channel positions : Front: L C R, Side: L R, LFE
Sampling rate : 48.0 KHz
Bit depth : 16 bits
Compression mode : Lossy
Stream size : 318 MiB (14%)
Title : Eng
Language : English
Default : No
Forced : No
Text #1
ID : 5
Format : UTF-8
Codec ID : S_TEXT/UTF8
Codec ID/Info : UTF-8 Plain Text
Title : Forced
Language : Russian
Default : No
Forced : No
Text #2
ID : 6
Format : UTF-8
Codec ID : S_TEXT/UTF8
Codec ID/Info : UTF-8 Plain Text
Title : Full
Language : Russian
Default : No
Forced : No
Text #3
ID : 7
Format : UTF-8
Codec ID : S_TEXT/UTF8
Codec ID/Info : UTF-8 Plain Text
Title : Goblin
Language : Russian
Default : No
Forced : No
Text #4
ID : 8
Format : UTF-8
Codec ID : S_TEXT/UTF8
Codec ID/Info : UTF-8 Plain Text
Title : Eng
Language : English
Default : No
Forced : No

Download / Скачать

Хотите скачать бесплатно? Зарегистрируйтесь на сайте (ссылка на регистрацию). Pirat.ca - самый быстрый торрент трекер в рунете!

Как скачивать  ·   Что такое торрент  ·   Рейтинг и ограничения

ANTONIO173642

Шкипер

19

Пост 01-Янв-2014 16:17 (спустя 4 часа)

[Q] 

а перевод гоблина, а то я везде с матом находил 7
[Профиль]  [ЛС] 

дед_Мазай

Корсар

227

Пост 01-Янв-2014 16:51 (спустя 34 минуты)

[Q] 

Отличный кинчик. Всем советую посмотреть и посмеяться.

_________________
[Профиль]  [ЛС] 

PavKor

Шкипер

Пост 28-Июн-2014 12:07 (спустя 5 месяцев 26 дней)

[Q] 

Понравился фильм. Комедия ситуация и драма души. Фильм рекомендуется к просмотру в авторском переводе. И детские уши ранее 18 лет не стоит допускать.
[Профиль]  [ЛС] 

nikolass1989

Корсар

91

Пост 26-Дек-2014 22:57 (спустя 5 месяцев 28 дней)

[Q] 

........... Спасибо!!! ........
[Профиль]  [ЛС] 

Towelie

Корсар

13

Пост 20-Июн-2017 13:02 (спустя 2 года 5 месяцев)

[Q] 

Спасибо!!! Лови бочку
[Профиль]  [ЛС] 

Амангельды

38066

Пост 11-Мар-2018 03:38 (спустя 8 месяцев 20 дней)

[Q] 

А посмотрим-ка, посмотрим...
Дмитрий Пучков - силен в переводе...
Раздающему респект!

_________________

Товарищ, верь, пройдет она,
Так называемая гласность.
И вот тогда госбезопасность
Припомнит ваши имена
Раздачи от Амангельды - ТЫНЦ
[Профиль]  [ЛС] 
Показать сообщения:    
Ответить на тему

Текущее время: Сегодня 07:47

Часовой пояс: GMT + 4



Вы не можете начинать темы
Вы не можете отвечать на сообщения
Вы не можете редактировать свои сообщения
Вы не можете удалять свои сообщения
Вы не можете голосовать в опросах
Вы не можете прикреплять файлы к сообщениям
Вы не можете скачивать файлы

Майнать ▼