Кошки / Cats (Дэвид Мале / David Mallet) [1998 г., мюзикл, BDRip-AVC] Original (Eng) + Sub (Rus, Eng) [Jolly Roger]

Ответить на тему
 
Автор
Сообщение

Пост 29-Сен-2013 10:59

[Q] 

erchine

-Кошки / Cats- Год выпуска: 1998 г.
Производство: Великобритания, США
Жанр: мюзикл
Продолжительность: 02:00:31
Перевод: Субтитры
Оригинальный аудиопоток: английский
Режиссер: Дэвид Мале / David Mallet
В ролях: Джеймс Баррон, Джо Бингхэм, Джейкоб Брент, Кэй Браун, Veerle Casteleyn, Филлида Краули Смит, Rosmarie Ford, Джейсон Гардинер, Джеффри Гаррэтт, Джо Гибб

Описание: "Кошки" Эндрю Ллойда Уэббера - один из самых популярных мюзиклов всех времен, впервые "выстрелил" на сцене Вест-Энда в 1981 году. "Память", одна из самых запоминающихся песен постановки, стала классическим хитом. С тех пор "Кошки" побили все мыслимые рекорды и покорили мир. Звездный актерский состав под предводительством Элейн Пэйдж и сэра Джона Миллса, роскошные визуальные эффекты и глубокое звучание оркестра из 80 музыкантов позволят вам полностью погрузиться в таинственный мир "Кошек". Качество видео: BDRip-AVC
Контейнер: MKV
Видео кодек: H.264
Аудио кодек: AC3
Видео: MPEG4 Video (H264) 1024x592 23.976fps 2131 Kbps
Аудио: Dolby AC3 48000Hz 6ch 448 Kbps / Английский
Субтитры: русские, английские
General
Unique ID : 248606964725789246670544912937151528811 (0xBB07F5B3CE2B4AFBB29B55E526E67F6B)
Complete name : D:\Cats.1998.H.264.BDRip-AVC.JRG.mkv
Format : Matroska
Format version : Version 4 / Version 2
File size : 2.17 GiB
Duration : 2h 0mn
Overall bit rate : 2 578 Kbps
Movie name : The Jolly Roger Release Group by Pirat.CA
Encoded date : UTC 2013-09-21 00:52:27
Writing application : mkvmerge v6.3.0 ('You can't stop me!') built on Jun 28 2013 20:09:41
Writing library : libebml v1.3.0 + libmatroska v1.4.0
Video
ID : 1
Format : AVC
Format/Info : Advanced Video Codec
Format profile : [email protected]
Format settings, CABAC : Yes
Format settings, ReFrames : 7 frames
Codec ID : V_MPEG4/ISO/AVC
Duration : 2h 0mn
Bit rate : 2 131 Kbps
Width : 1 024 pixels
Height : 592 pixels
Display aspect ratio : 1.730
Frame rate mode : Constant
Frame rate : 23.976 fps
Color space : YUV
Chroma subsampling : 4:2:0
Bit depth : 8 bits
Scan type : Progressive
Bits/(Pixel*Frame) : 0.147
Stream size : 1.75 GiB (81%)
Writing library : x264 core 130 r2273 b3065e6
Encoding settings : cabac=1 / ref=7 / deblock=1:-1:-1 / analyse=0x3:0x133 / me=umh / subme=10 / psy=1 / psy_rd=1.00:0.15 / mixed_ref=1 / me_range=24 / chroma_me=1 / trellis=2 / 8x8dct=1 / cqm=0 / deadzone=21,11 / fast_pskip=0 / chroma_qp_offset=-3 / threads=3 / lookahead_threads=1 / sliced_threads=0 / nr=0 / decimate=1 / interlaced=0 / bluray_compat=0 / constrained_intra=0 / bframes=6 / b_pyramid=2 / b_adapt=2 / b_bias=0 / direct=3 / weightb=1 / open_gop=0 / weightp=2 / keyint=250 / keyint_min=23 / scenecut=40 / intra_refresh=0 / rc_lookahead=50 / rc=2pass / mbtree=1 / bitrate=2131 / ratetol=1.0 / qcomp=0.60 / qpmin=0 / qpmax=69 / qpstep=4 / cplxblur=20.0 / qblur=0.5 / ip_ratio=1.40 / aq=1:1.00
Default : Yes
Forced : No
Audio
ID : 2
Format : AC-3
Format/Info : Audio Coding 3
Mode extension : CM (complete main)
Format settings, Endianness : Big
Codec ID : A_AC3
Duration : 2h 0mn
Bit rate mode : Constant
Bit rate : 448 Kbps
Channel(s) : 6 channels
Channel positions : Front: L C R, Side: L R, LFE
Sampling rate : 48.0 KHz
Bit depth : 16 bits
Compression mode : Lossy
Stream size : 386 MiB (17%)
Default : Yes
Forced : No
Text #1
ID : 3
Format : UTF-8
Codec ID : S_TEXT/UTF8
Codec ID/Info : UTF-8 Plain Text
Language : Russian
Default : Yes
Forced : No
Text #2
ID : 4
Format : UTF-8
Codec ID : S_TEXT/UTF8
Codec ID/Info : UTF-8 Plain Text
Language : English
Default : No
Forced : No

Download / Скачать

Хотите скачать бесплатно? Зарегистрируйтесь на сайте (ссылка на регистрацию). Pirat.ca - самый быстрый торрент трекер в рунете!

Как скачивать  ·   Что такое торрент  ·   Рейтинг и ограничения

kmv01

Гроза морей

Пост 30-Сен-2013 08:57 (спустя 21 час)

[Q] 

Спасибо! Давно хотел посмотреть!
[Профиль]  [ЛС] 

agafonkin.62

Морской Волк

Пост 29-Окт-2013 01:53 (спустя 28 дней)

[Q] 

Благодарю! супер! шедевр !
[Профиль]  [ЛС] 

veter510

Флибустьер

Пост 01-Ноя-2013 19:20 (спустя 3 дня)

[Q] 

Спасибо! Смотрел где-то в 80-х, на видюшнике, тысяча первая перезапись, что звук, что изображение - никакие......
[Профиль]  [ЛС] 

h5n1

Гроза морей

499

Пост 30-Мар-2014 06:34 (спустя 4 месяца 28 дней)

[Q] 

Спасибо, посмотреть я так и сподобился а тут... Лови бочку

_________________
«Мы находимся здесь, чтобы внести свой вклад в этот мир. Иначе зачем мы здесь?» S.Jobs
[Профиль]  [ЛС] 

sweden_hat

Шкипер

Пост 11-Мар-2018 09:48 (спустя 3 года 11 месяцев)

[Q] 

Дааа, это ВЕЩЬ! Не говоря уж о том, что наша молодость! Спасибо! Спасибо!!!
[Профиль]  [ЛС] 
Показать сообщения:    
Ответить на тему

Текущее время: Сегодня 12:03

Часовой пояс: GMT + 4



Вы не можете начинать темы
Вы не можете отвечать на сообщения
Вы не можете редактировать свои сообщения
Вы не можете удалять свои сообщения
Вы не можете голосовать в опросах
Вы не можете прикреплять файлы к сообщениям
Вы не можете скачивать файлы

Майнать ▼