Уважаемый Гость!
Вы можете поддержать проект и зарегистрироваться у наших партнеров - онлайн-стратегия MyLands. При регистрации в игре Вы получите код, который сможете активировать после регистрации на pirat.ca и получить 1000 дублонов.

Ваш код:
8033e48ea0cc20b8e29a4484bf15523784769c0f
 
     

Терминатор: Генезис / Terminator Genisys (Алан Тейлор / Alan Taylor) [2015 г., фантастика, боевик, триллер, BDRip-AVC] Dub [Лицензия] + Original (Eng) + Sub (Rus, Eng)[Jolly Roger]

Ответить на тему
 
Автор
Сообщение

Пост 18-Окт-2015 00:37

[Q] 

aleksey99

--Терминатор: Генезис / Terminator Genisys--«Судьба переписана»-- Производство: США, Paramount Pictures, Skydance Productions, Centroid Motion Capture, Double Negative
Год выпуска: 2015 г.
Жанр: фантастика, боевик, триллер
Продолжительность: 02:05:42--Мировая премьера: 21 июня 2015
Российская премьера: 2 июля 2015, «Централ Партнершип»
Релиз на DVD: 22 ноября 2015, «Новый Диск»
Релиз на Blu-Ray: 22 ноября 2015, «Новый Диск»--Перевод: Профессиональный (полное дублирование) [Лицензия]
Оригинальный аудиопоток: английский--Режиссер: Алан Тейлор / Alan Taylor--В ролях: Арнольд Шварценеггер, Джейсон Кларк, Эмилия Кларк, Джай Кортни, Дж.К. Симмонс, Дайо Окенийи, Мэтт Смит, Кортни Б. Вэнс, Бён Хон Ли, Майкл Глэдис, Сандрин Холт, Уэйн Баструп, Грегори Алан Уильямс, Отто Санчес, Мэтти Ферраро, Грифф Ферст, Йен Этеридж, Нолан Гросс, Сет Меривезер, Афемо Омилами--Описание: Когда Джон Коннор, лидер сопротивления, посылает сержанта Кайла Риза назад в 1984 год, чтобы защитить Сару Коннор и спасти будущее, неожиданный поворот событий создает разлом во времени. Сержант Риз оказывается в новой, незнакомой версии прошлого, где он встречает неожиданных союзников, в том числе Терминатора, новых опасных врагов, и новую миссию: изменить будущее…-- --Качество видео: BDRip-AVC
Контейнер: MKV
Видео кодек: H.264
Аудио кодек: AC3
Видео: AVC at 2417 Кбит/сек, 1056x440 at 23,976 fps
Аудио 1: 48 kHz, AC3 Dolby Digital, 3/2 (L,C,R,l,r) + LFE ch, ~448 kbps RUS
Аудио 2: 48 kHz, AC3 Dolby Digital, 3/2 (L,C,R,l,r) + LFE ch, ~448 kbps ENG
Cубтитры: русские, английские (отключаемые).
x264 [info]: frame I:1678 Avg QP:11.34 size: 80714
x264 [info]: frame P:45854 Avg QP:14.70 size: 24744
x264 [info]: frame B:133319 Avg QP:16.64 size: 7562
Общее
Уникальный идентификатор : 182832313574648853934310313626231695420 (0x898C39063E0D46A4A94127B4CE78E83C)
Полное имя : D:\P2\Terminator.Genisys.2015.BDRip-AVC_JRG.mkv
Формат : Matroska
Версия формата : Version 4 / Version 2
Размер файла : 2,91 Гбайт
Продолжительность : 2 ч. 5 м.
Общий поток : 3314 Кбит/сек
Название фильма : The Jolly Roger Release Group by http://pirat.ca
Дата кодирования : UTC 2015-10-22 15:20:12
Программа кодирования : mkvmerge v8.3.0 ('Over the Horizon') 64bit
Библиотека кодирования : libebml v1.3.1 + libmatroska v1.4.2
DURATION : 01:56:58.428000000
NUMBER_OF_FRAMES : 1340
NUMBER_OF_BYTES : 42308
_STATISTICS_WRITING_APP : mkvmerge v8.3.0 ('Over the Horizon') 64bit
_STATISTICS_WRITING_DATE_UTC : 2015-10-22 15:20:12
_STATISTICS_TAGS : BPS DURATION NUMBER_OF_FRAMES NUMBER_OF_BYTES
Видео
Идентификатор : 1
Формат : AVC
Формат/Информация : Advanced Video Codec
Профиль формата : [email protected]
Параметр CABAC формата : Да
Параметр ReFrames формата : 12 кадров
Идентификатор кодека : V_MPEG4/ISO/AVC
Продолжительность : 2 ч. 5 м.
Битрейт : 2417 Кбит/сек
Ширина : 1056 пикселей
Высота : 440 пикселей
Соотношение сторон : 2,40:1
Режим частоты кадров : Постоянный
Частота кадров : 23,976 кадра/сек
Цветовое пространство : YUV
Субдискретизация насыщенности : 4:2:0
Битовая глубина : 8 бит
Тип развёртки : Прогрессивная
Бит/(Пиксели*Кадры) : 0.217
Размер потока : 2,07 Гбайт (71%)
Библиотека кодирования : x264 core 146 r2538 121396c
Настройки программы : cabac=1 / ref=12 / deblock=1:-3:-3 / analyse=0x3:0x113 / me=umh / subme=10 / psy=1 / psy_rd=1.00:0.15 / mixed_ref=1 / me_range=48 / chroma_me=1 / trellis=2 / 8x8dct=1 / cqm=0 / deadzone=21,11 / fast_pskip=0 / chroma_qp_offset=-3 / threads=6 / lookahead_threads=1 / sliced_threads=0 / nr=0 / decimate=1 / interlaced=0 / bluray_compat=0 / constrained_intra=0 / bframes=8 / b_pyramid=2 / b_adapt=2 / b_bias=0 / direct=3 / weightb=1 / open_gop=0 / weightp=2 / keyint=250 / keyint_min=23 / scenecut=40 / intra_refresh=0 / rc_lookahead=50 / rc=2pass / mbtree=1 / bitrate=2417 / ratetol=1.0 / qcomp=0.60 / qpmin=0 / qpmax=69 / qpstep=4 / cplxblur=20.0 / qblur=0.5 / vbv_maxrate=14000 / vbv_bufsize=14000 / nal_hrd=none / filler=0 / ip_ratio=1.40 / aq=1:1.00
Язык : English
Default : Да
Forced : Нет
DURATION : 02:05:42.994000000
NUMBER_OF_FRAMES : 180851
NUMBER_OF_BYTES : 2278225611
_STATISTICS_WRITING_APP : mkvmerge v8.3.0 ('Over the Horizon') 64bit
_STATISTICS_WRITING_DATE_UTC : 2015-10-22 15:20:12
_STATISTICS_TAGS : BPS DURATION NUMBER_OF_FRAMES NUMBER_OF_BYTES
Аудио #1
Идентификатор : 2
Формат : AC-3
Формат/Информация : Audio Coding 3
Расширение режима : CM (complete main)
Параметр Endianness формата : Big
Идентификатор кодека : A_AC3
Продолжительность : 2 ч. 5 м.
Вид битрейта : Постоянный
Битрейт : 448 Кбит/сек
Каналы : 6 каналов
Расположение каналов : Front: L C R, Side: L R, LFE
Частота : 48,0 КГц
Метод сжатия : С потерями
Размер потока : 403 Мбайт (14%)
Язык : Russian
Default : Да
Forced : Нет
Аудио #2
Идентификатор : 3
Формат : AC-3
Формат/Информация : Audio Coding 3
Расширение режима : CM (complete main)
Параметр Endianness формата : Big
Идентификатор кодека : A_AC3
Продолжительность : 2 ч. 5 м.
Вид битрейта : Постоянный
Битрейт : 448 Кбит/сек
Каналы : 6 каналов
Расположение каналов : Front: L C R, Side: L R, LFE
Частота : 48,0 КГц
Метод сжатия : С потерями
Размер потока : 403 Мбайт (14%)
Заголовок : Original
Язык : English
Default : Нет
Forced : Нет
Текст #1
Идентификатор : 4
Формат : UTF-8
Идентификатор кодека : S_TEXT/UTF8
Идентификатор кодека/Информация : UTF-8 Plain Text
Язык : Russian
Default : Нет
Forced : Нет
Текст #2
Идентификатор : 5
Формат : UTF-8
Идентификатор кодека : S_TEXT/UTF8
Идентификатор кодека/Информация : UTF-8 Plain Text
Язык : English
Default : Нет
Forced : Нет
Меню
00:00:00.000 : en:00:00:00.000
00:07:40.334 : en:00:07:40.334
00:14:20.734 : en:00:14:20.734
00:20:31.563 : en:00:20:31.563
00:27:48.416 : en:00:27:48.416
00:34:54.801 : en:00:34:54.801
00:41:02.626 : en:00:41:02.626
00:46:28.786 : en:00:46:28.786
00:53:05.515 : en:00:53:05.515
01:01:00.239 : en:01:01:00.239
01:08:22.556 : en:01:08:22.556
01:14:43.812 : en:01:14:43.812
01:21:31.261 : en:01:21:31.261
01:31:01.706 : en:01:31:01.706
01:38:42.750 : en:01:38:42.750
01:45:41.084 : en:01:45:41.084
01:52:48.970 : en:01:52:48.970
01:58:00.114 : en:01:58:00.114
Download / Скачать

Хотите скачать бесплатно? Зарегистрируйтесь на сайте (ссылка на регистрацию). Pirat.ca - самый быстрый торрент трекер в рунете!

Как скачивать  ·   Что такое торрент  ·   Рейтинг и ограничения



Последний раз редактировалось: aleksey99 (2015-10-22 19:35), всего редактировалось 1 раз

berezeca

Корсар

Пост 18-Окт-2015 01:10 (спустя 32 минуты)

[Q] 

спасибо посмотрим
[Профиль]  [ЛС] 

Sector_X

311

Пост 18-Окт-2015 01:49 (спустя 39 минут)

[Q] 

Спасибо!!! Раздающему респект!

_________________

[Профиль]  [ЛС] 

SM 96

Легенда

Пост 18-Окт-2015 12:01 (спустя 10 часов)

[Q] 

Ку три раза Лови бочку
[Профиль]  [ЛС] 

atribut

Морской Волк

Пост 18-Окт-2015 14:29 (спустя 2 часа 27 минут)

[Q] 

фильм супер бомба, режисеру сценаристу респект и автору топика тоже Зуб даю... !COOL!

_________________
Подпись отключена за нарушение правил форума
[Профиль]  [ЛС] 

rent89

Шкипер

Пост 18-Окт-2015 18:35 (спустя 4 часа)

[Q] 

Лови бочку Спасибо!!!
[Профиль]  [ЛС] 

BraionServ1

Гроза морей

Пост 18-Окт-2015 23:05 (спустя 4 часа)

[Q] 

Последует лицензионная озвучка или сейчас рипы из Тунца лицензионные? Неохота тысячу раз со своей коллекции файлы перебрасывать и удалять
[Профиль]  [ЛС] 

aleksey99 ®

306150

Пост 18-Окт-2015 23:31 (спустя 25 минут)

[Q] 

709275Последует лицензионная озвучка или сейчас рипы из Тунца лицензионные? Неохота тысячу раз со своей коллекции файлы перебрасывать и удалять
Релиз на DVD: 22 ноября 2015, «Новый Диск»
Релиз на Blu-Ray: 22 ноября 2015, «Новый Диск»

_________________

[Профиль]  [ЛС] 

aleksey99 ®

306150

Пост 22-Окт-2015 19:36 (спустя 3 дня)

[Q] 

Файл заменён. Звук [Лицензия]

_________________

[Профиль]  [ЛС] 

EDVAR

Легенда

Пост 22-Окт-2015 20:37 (спустя 1 час)

[Q] 

Очень замечательный фильм!!! Спасибо!!!

_________________
"Как других судить-вы судьи.Как себя-вы адвокаты"
[Профиль]  [ЛС] 

ALEHAN

Легенда

Пост 23-Окт-2015 14:24 (спустя 17 часов)

[Q] 

За месяц до релиза оригинальную дорогу с двд умыкнули? Ну что ж, взглянем на эту поделку голливудской машины развлечений.
PS Взглянул. Как же все печально, фильм хоть и лучше 3 части, но хуже 4. Ни драматизма, ни напряжения. Идиотские шутки. В итоге получился фильм - на раз посмотреть и забыть.
[Профиль]  [ЛС] 

Пост 05-Дек-2015 09:04 (спустя 1 месяц 12 дней)

Топик был перенесен из форума Новинки (HD|DVD|BD| TV|SAT|PDTV| - Rips) в форум Фильмы 2010 - 2015 г.г.
aleksey99
 

Maringer1

Штурман

20

Пост 05-Дек-2015 23:46 (спустя 1 месяц 13 дней)

[Q] 

спасибо....!!!!!!!!
[Профиль]  [ЛС] 

bumsbarabums

Лоцман

7

Пост 06-Фев-2016 00:42 (спустя 2 месяца)

[Q] 

Спасибо...!!!
Пиратка рулит!
[Профиль]  [ЛС] 

Vintorezov REG 39

Легенда

176

Пост 06-Фев-2016 22:53 (спустя 22 часа)

[Q] 

Спасибо хорошее кино.
[Профиль]  [ЛС] 

Прораб

Легенда

Пост 05-Фев-2017 15:40 (спустя 11 месяцев)

[Q] 

Спасибо, забираю.
Лови бочку
[Профиль]  [ЛС] 

exelero07

Флибустьер

Пост 12-Мар-2018 23:22 (спустя 1 год 1 месяц)

[Q] 

Неплохая вариация вышла, но до классики все же не дотягивает.
[Профиль]  [ЛС] 
Показать сообщения:    
Ответить на тему

Текущее время: Сегодня 20:10

Часовой пояс: GMT + 4



Вы не можете начинать темы
Вы не можете отвечать на сообщения
Вы не можете редактировать свои сообщения
Вы не можете удалять свои сообщения
Вы не можете голосовать в опросах
Вы не можете прикреплять файлы к сообщениям
Вы не можете скачивать файлы

▼ Вниз