Шальная карта / Wild Card (Саймон Уэст / Simon West) [2015 г., боевик, триллер, драма, криминал, BDRip-AVC] MVO (Paradox) + VO (М.Яроцкий) + Original (Eng) + Sub (Rus, Eng) [Jolly Roger]

Ответить на тему
 
Автор
Сообщение

Пост 09-Апр-2015 17:05

[Q] 

LPPI

Гроза морей

-Шальная карта / Wild Card- Год выпуска: 2015 г.
Производство: США, Lionsgate, Cinema Seven Productions, Current Entertainment
Жанр: боевик, триллер, драма, криминал
Продолжительность: 01:32:21
Перевод: Профессиональный (многоголосный, закадровый) [Paradox]
Перевод 2: Любительский (одноголосный, закадровый) [М.Яроцкий]
Оригинальный аудиопоток: английский
Режиссер: Саймон Уэст / Simon West
В ролях: Джейсон Стэйтем, Майкл Ангарано, Майло Вентимилья, Доминик Гарсиа-Лоридо, Энн Хеч, София Вергара, Макс Казелла, Джейсон Александер, Хоуп Дэвис, Стэнли Туччи, Франсуа Винчентелли, Крис Браунинг, Мэттью Уиллиг, Давиния МакФэдден, Майкл Пападжон, Жан Клод Лёйе, Фредди Пул, Ник Эппер, Лара Грайс, Д’Арси Аллен
Описание: Главный герой — бывший военный Ник Эскаланте — работает в Лас-Вегасе охранником, мечтает накопить денег и навсегда уехать на остров Корсика. Но Ник соглашается помочь проститутке Холли, постоянно подвергающейся насилию со стороны сына крупного гангстера, из-за чего его отъезд откладывается. Качество видео: BDRip-AVC
Контейнер: MKV
Видео кодек: H.264
Аудио кодек: AC3
Видео: MPEG4 Video (H264) 1024x424 23.976fps 2351 Kbps 0.226 bit/pixel
Аудио: Dolby AC3 48000Hz 6ch 384 Kbps / Русский, MVO
Аудио 2: Dolby AC3 48000Hz 6ch 384 Kbps / Русский, VO
Аудио 3: Dolby AC3 48000Hz 6ch 448 Kbps / Английский
Субтитры: Русские, английские, отключаемые
avs [info]: 1024x424p 1:1 @ 2500000/104271 fps (cfr)
x264 [info]: using SAR=1/1
x264 [info]: using cpu capabilities: MMX2 SSE2Fast SSSE3 SSE4.2 AVX
x264 [info]: profile High, level 3.1
x264 [info]: frame I:1352 Avg QP:15.01 size: 73688
x264 [info]: frame P:26953 Avg QP:17.35 size: 23788
x264 [info]: frame B:104535 Avg QP:18.27 size: 8431
x264 [info]: consecutive B-frames: 2.2% 2.2% 5.1% 11.0% 16.1% 56.3% 5.4% 1.8%
x264 [info]: mb I I16..4: 28.1% 49.8% 22.1%
x264 [info]: mb P I16..4: 2.0% 15.2% 1.7% P16..4: 49.0% 13.4% 8.6% 0.7% 0.2% skip: 9.1%
x264 [info]: mb B I16..4: 0.1% 1.0% 0.1% B16..8: 38.6% 9.0% 2.7% direct: 7.1% skip:41.5% L0:43.7% L1:44.7% BI:11.6%
x264 [info]: 8x8 transform intra:75.9% inter:49.3%
x264 [info]: direct mvs spatial:97.9% temporal:2.1%
x264 [info]: coded y,uvDC,uvAC intra: 95.0% 64.3% 46.4% inter: 31.5% 12.1% 4.6%
x264 [info]: i16 v,h,dc,p: 12% 4% 38% 46%
x264 [info]: i8 v,h,dc,ddl,ddr,vr,hd,vl,hu: 13% 10% 15% 8% 11% 10% 11% 10% 12%
x264 [info]: i4 v,h,dc,ddl,ddr,vr,hd,vl,hu: 13% 10% 5% 9% 14% 13% 13% 11% 12%
x264 [info]: i8c dc,h,v,p: 48% 26% 16% 11%
x264 [info]: Weighted P-Frames: Y:4.9% UV:2.6%
x264 [info]: ref P L0: 42.3% 7.7% 22.5% 7.2% 8.6% 4.8% 6.5% 0.4% 0.0%
x264 [info]: ref B L0: 62.5% 17.8% 9.3% 6.1% 2.9% 1.4%
x264 [info]: ref B L1: 89.5% 10.5%
x264 [info]: kb/s:2342.20
encoded 132840 frames, 19.72 fps, 2342.21 kb/s

General
Unique ID : 237665230741069947661566911678189557934 (0xB2CCA890FDCAE71DA3B98F98199658AE)
Complete name : F:\Мои рипы\Wild.Card.2015.H.264.BDRip-AVC.JRG.mkv
Format : Matroska
Format version : Version 4 / Version 2
File size : 2.30 GiB
Duration : 1h 32mn
Overall bit rate : 3 561 Kbps
Movie name : The Jolly Roger Release Group by Pirat.CA
Encoded date : UTC 2015-04-09 12:30:57
Writing application : mkvmerge v7.8.0 ('River Man') 64bit built on Mar 27 2015 16:31:37
Writing library : libebml v1.3.1 + libmatroska v1.4.2
DURATION : 01:23:39.683000000
NUMBER_OF_FRAMES : 887
NUMBER_OF_BYTES : 33495
_STATISTICS_WRITING_APP : mkvmerge v7.8.0 ('River Man') 64bit built on Mar 27 2015 16:31:37
_STATISTICS_WRITING_DATE_UT : 2015-04-09 12:30:57
_STATISTICS_TAGS : BPS DURATION NUMBER_OF_FRAMES NUMBER_OF_BYTES
Video
ID : 1
Format : AVC
Format/Info : Advanced Video Codec
Format profile : [email protected]
Format settings, CABAC : Yes
Format settings, ReFrames : 7 frames
Codec ID : V_MPEG4/ISO/AVC
Duration : 1h 32mn
Bit rate : 2 351 Kbps
Width : 1 024 pixels
Height : 424 pixels
Display aspect ratio : 2.40:1
Frame rate mode : Constant
Frame rate : 23.976 fps
Color space : YUV
Chroma subsampling : 4:2:0
Bit depth : 8 bits
Scan type : Progressive
Bits/(Pixel*Frame) : 0.226
Stream size : 1.47 GiB (64%)
Title : Шальная карта / Wild Card
Writing library : x264 core 130 r2273 b3065e6
Encoding settings : cabac=1 / ref=7 / deblock=1:-3:-3 / analyse=0x3:0x133 / me=umh / subme=10 / psy=1 / psy_rd=1.00:0.15 / mixed_ref=0 / me_range=32 / chroma_me=1 / trellis=2 / 8x8dct=1 / cqm=0 / deadzone=21,11 / fast_pskip=0 / chroma_qp_offset=-3 / threads=12 / lookahead_threads=2 / sliced_threads=0 / nr=0 / decimate=0 / interlaced=0 / bluray_compat=0 / constrained_intra=0 / bframes=7 / b_pyramid=2 / b_adapt=2 / b_bias=0 / direct=3 / weightb=1 / open_gop=0 / weightp=2 / keyint=250 / keyint_min=23 / scenecut=40 / intra_refresh=0 / rc=2pass / mbtree=0 / bitrate=2351 / ratetol=1.0 / qcomp=0.60 / qpmin=0 / qpmax=69 / qpstep=4 / cplxblur=20.0 / qblur=0.5 / ip_ratio=1.40 / pb_ratio=1.30 / aq=1:1.00
Language : English
Default : Yes
Forced : Yes
DURATION : 01:32:20.544000000
NUMBER_OF_FRAMES : 132840
NUMBER_OF_BYTES : 1622136297
_STATISTICS_WRITING_APP : mkvmerge v7.8.0 ('River Man') 64bit built on Mar 27 2015 16:31:37
_STATISTICS_WRITING_DATE_UT : 2015-04-09 12:30:57
_STATISTICS_TAGS : BPS DURATION NUMBER_OF_FRAMES NUMBER_OF_BYTES
Audio #1
ID : 2
Format : AC-3
Format/Info : Audio Coding 3
Mode extension : CM (complete main)
Format settings, Endianness : Big
Codec ID : A_AC3
Duration : 1h 32mn
Bit rate mode : Constant
Bit rate : 384 Kbps
Channel(s) : 6 channels
Channel positions : Front: L C R, Side: L R, LFE
Sampling rate : 48.0 KHz
Bit depth : 16 bits
Compression mode : Lossy
Stream size : 254 MiB (11%)
Title : Paradox
Language : Russian
Default : Yes
Forced : Yes
Audio #2
ID : 3
Format : AC-3
Format/Info : Audio Coding 3
Mode extension : CM (complete main)
Format settings, Endianness : Big
Codec ID : A_AC3
Duration : 1h 32mn
Bit rate mode : Constant
Bit rate : 384 Kbps
Channel(s) : 6 channels
Channel positions : Front: L C R, Side: L R, LFE
Sampling rate : 48.0 KHz
Bit depth : 16 bits
Compression mode : Lossy
Stream size : 254 MiB (11%)
Title : М.Яроцкий
Language : Russian
Default : No
Forced : No
Audio #3
ID : 4
Format : AC-3
Format/Info : Audio Coding 3
Mode extension : CM (complete main)
Format settings, Endianness : Big
Codec ID : A_AC3
Duration : 1h 32mn
Bit rate mode : Constant
Bit rate : 448 Kbps
Channel(s) : 6 channels
Channel positions : Front: L C R, Side: L R, LFE
Sampling rate : 48.0 KHz
Bit depth : 16 bits
Compression mode : Lossy
Stream size : 296 MiB (13%)
Title : Original
Language : English
Default : No
Forced : No
Text #1
ID : 5
Format : UTF-8
Codec ID : S_TEXT/UTF8
Codec ID/Info : UTF-8 Plain Text
Language : Russian
Default : No
Forced : No
Text #2
ID : 6
Format : UTF-8
Codec ID : S_TEXT/UTF8
Codec ID/Info : UTF-8 Plain Text
Language : English
Default : No
Forced : No
Menu
00:00:00.000 : en:00:00:00.000
00:06:08.658 : en:00:06:08.658
00:14:12.350 : en:00:14:12.350
00:23:21.816 : en:00:23:21.816
00:27:53.296 : en:00:27:53.296
00:33:44.814 : en:00:33:44.814
00:39:56.893 : en:00:39:56.893
00:45:03.532 : en:00:45:03.532
00:49:49.193 : en:00:49:49.193
00:56:36.391 : en:00:56:36.391
01:00:54.317 : en:01:00:54.317
01:05:01.105 : en:01:05:01.105
01:10:29.557 : en:01:10:29.557
01:16:24.787 : en:01:16:24.787
01:21:46.275 : en:01:21:46.275
01:25:39.257 : en:01:25:39.257

Download / Скачать

Хотите скачать бесплатно? Зарегистрируйтесь на сайте (ссылка на регистрацию). Pirat.ca - самый быстрый торрент трекер в рунете!

Как скачивать  ·   Что такое торрент  ·   Рейтинг и ограничения

pdb08

Легенда

73

Пост 09-Апр-2015 20:30 (спустя 3 часа)

[Q] 

Спасибо за раздачу!

_________________
[Профиль]  [ЛС] 

grosboy

Гроза морей

Пост 09-Апр-2015 21:00 (спустя 30 минут)

[Q] 

Фильм отличный. Всем качать!!! Спасибо!!!

_________________
Щастье есть - его не может не быть...
[Профиль]  [ЛС] 

maxshpexfex

Морской Волк

Пост 09-Апр-2015 22:02 (спустя 1 час 1 минута)

[Q] 

Стетхем в своем стиле rum Спасибо!!!
[Профиль]  [ЛС] 

lkas1010

Корсар

Пост 10-Апр-2015 00:58 (спустя 2 часа 55 минут)

[Q] 

Фильм нормальный. Раздающему респект!
[Профиль]  [ЛС] 

julikam

Гроза морей

Пост 10-Апр-2015 15:20 (спустя 14 часов)

[Q] 

Спасибо за труд!!!

_________________

Не может быть отремонтировано только то, что не сломано.
[Профиль]  [ЛС] 

Doctor-ZLO

Гроза морей

507

Пост 10-Апр-2015 17:25 (спустя 2 часа 4 минуты)

[Q] 

Супер! Есть ,что посмотреть.

_________________
[Профиль]  [ЛС] 

urban.sasha

Штурман

Пост 10-Апр-2015 21:22 (спустя 3 часа)

[Q] 

Пиратка рулит! !COOL! Спасибо
[Профиль]  [ЛС] 

Amadon

Шкипер

Пост 11-Апр-2015 12:43 (спустя 15 часов)

[Q] 

спасибо Автору респект!!!
[Профиль]  [ЛС] 

stas498

Корсар

Пост 11-Апр-2015 13:33 (спустя 50 минут)

[Q] 

Спасибо!!! Автору респект!!!
[Профиль]  [ЛС] 

Dypa4ek

Морской Волк

Пост 12-Апр-2015 08:15 (спустя 18 часов)

[Q] 

Спасибо!!!     Лови бочку

_________________
[Профиль]  [ЛС] 

FuckOOF

Корсар

Пост 16-Апр-2015 15:23 (спустя 4 дня)

[Q] 

Одобрямс! Спасибо!!!

_________________
[url] [/url]
[Профиль]  [ЛС] 

surzis

Корсар

Пост 18-Апр-2015 11:13 (спустя 1 день 19 часов)

[Q] 

Хламчик. Разве что на один раз подойдет...

_________________
http://surzis.ru/ - заходи ко мне в блог! Советую только хорошие фильмы и игры!
[Профиль]  [ЛС] 

Artreds

Корсар

808

Пост 18-Апр-2015 12:31 (спустя 1 час 18 минут)

[Q] 

Можно посмотреть, одноразово.

_________________

[Профиль]  [ЛС] 

sdfghe

Шкипер

Пост 23-Апр-2015 21:13 (спустя 5 дней)

[Q] 

посмотрю отпишусь если незабу
[Профиль]  [ЛС] 

ellilight

Штурман

Пост 23-Апр-2015 23:06 (спустя 1 час 52 минуты)

[Q] 

http://pirat.ca/images/smiles/04.png
[Профиль]  [ЛС] 

saske_killer

Морской Волк

Пост 24-Апр-2015 15:38 (спустя 16 часов)

[Q] 

спасибо забрал Раздающему респект!
[Профиль]  [ЛС] 

Ivar1990

Морской Волк

Пост 07-Май-2015 16:32 (спустя 13 дней)

[Q] 

спасибо посмотрим
[Профиль]  [ЛС] 

Пост 12-Май-2015 21:46 (спустя 5 дней)

Топик был перенесен из форума Новинки (HD|DVD|BD| TV|SAT|PDTV| - Rips) в форум Фильмы 2010 - 2015 г.г.
aleksey99
 

Alcor

Морской Волк

Пост 18-Май-2015 11:23 (спустя 10 дней)

[Q] 

Годный фильмец.
Мне понравилось
[Профиль]  [ЛС] 

Bozo

Флибустьер

Пост 17-Июл-2015 23:41 (спустя 1 месяц 30 дней)

[Q] 

Какой унылый боевик
[Профиль]  [ЛС] 

demboss

Морской Волк

23

Пост 19-Июл-2015 23:29 (спустя 1 день 23 часа)

[Q] 

Раздающему респект! заценим))
[Профиль]  [ЛС] 

exelero07

Гроза морей

Пост 12-Мар-2018 23:40 (спустя 2 года 7 месяцев)

[Q] 

Как всегда герой Стэтхема попадает в неприятности.
Отличный экшен получился.
[Профиль]  [ЛС] 
Показать сообщения:    
Ответить на тему

Текущее время: Сегодня 13:39

Часовой пояс: GMT + 4



Вы не можете начинать темы
Вы не можете отвечать на сообщения
Вы не можете редактировать свои сообщения
Вы не можете удалять свои сообщения
Вы не можете голосовать в опросах
Вы не можете прикреплять файлы к сообщениям
Вы не можете скачивать файлы

Майнать ▼