(Power Metal) Vhaldemar - Against All Kings (Japan Edition) - 2017 [FLAC, image +.cue, lossless]

Ответить на тему
 
Автор
Сообщение

Пост 14-Мар-2018 12:49

[Q] 

sergej644

-Vhaldemar - Against All Kings (Japan Edition)--
Год издания: 2017
Страна: Spain
Жанр: Power Metal
Продолжительность: 00:43:13-Лейбл издания: RedRivet Records
Страна-выпуска диска: Japan
Номер по каталогу: RRR-21-Формат: FLAC
Битрейт аудио: Lossless
Тип рипа: image +.cue
Наличие сканов в содержимом раздачи: да
-

01. Metalizer (3:27)
02. 1366 (Old King’s Visions Part V) (3:57)
03. Against All Kings (3:58)
04. Eye For An Eye (3:43)
05. I Will Stand Forever (3:45)
06. Vulcano (0:33)
07. Howling At The Moon (4:40)
08. The Last To Die (4:31)
09. Walking In The Rain (4:25)
10. Rebel Mind (4:44)
11. Titans In D Minor (2:11)
12. Point of No Return (Bonus Track) (3:21)
-
Код:
Exact Audio Copy V1.1 from 23. June 2015
EAC extraction logfile from 23. December 2017, 20:19
Vhaldemar / Against All Kings (RRR-021)
Used drive  : TSSTcorpDVDWBD SH-B123L   Adapter: 0  ID: 4
Read mode               : Secure
Utilize accurate stream : Yes
Defeat audio cache      : Yes
Make use of C2 pointers : No
Read offset correction                      : 6
Overread into Lead-In and Lead-Out          : No
Fill up missing offset samples with silence : Yes
Delete leading and trailing silent blocks   : No
Null samples used in CRC calculations       : Yes
Used interface                              : Installed external ASPI interface
Used output format              : User Defined Encoder
Selected bitrate                : 768 kBit/s
Quality                         : High
Add ID3 tag                     : No
Command line compressor         : C:\Program Files (x86)\Exact Audio Copy\FLAC\FLAC.EXE
Additional command line options : -6 -V -T "ARTIST=%artist%" -T "TITLE=%title%" -T "ALBUM=%albumtitle%" -T "DATE=%year%" -T "TRACKNUMBER=%tracknr%" -T "GENRE=%genre%" -T "COMMENT=%comment%" -T "BAND=%albuminterpret%" -T "ALBUMARTIST=%albuminterpret%" -T "COMPOSER=%composer%" %haslyrics%--tag-from-file=LYRICS="%lyricsfile%"%haslyrics% -T "DISCNUMBER=%cdnumber%" -T "TOTALDISCS=%totalcds%" -T "TOTALTRACKS=%numtracks%" %hascover%--picture="%coverfile%"%hascover% %source% -o %dest%
TOC of the extracted CD
     Track |   Start  |  Length  | Start sector | End sector
    ---------------------------------------------------------
        1  |  0:00.00 |  3:27.37 |         0    |    15561
        2  |  3:27.37 |  3:56.62 |     15562    |    33323
        3  |  7:24.24 |  3:57.46 |     33324    |    51144
        4  | 11:21.70 |  3:42.47 |     51145    |    67841
        5  | 15:04.42 |  3:44.59 |     67842    |    84700
        6  | 18:49.26 |  0:32.46 |     84701    |    87146
        7  | 19:21.72 |  4:40.02 |     87147    |   108148
        8  | 24:01.74 |  4:30.58 |    108149    |   128456
        9  | 28:32.57 |  4:25.04 |    128457    |   148335
       10  | 32:57.61 |  4:44.14 |    148336    |   169649
       11  | 37:42.00 |  2:10.52 |    169650    |   179451
       12  | 39:52.52 |  3:20.52 |    179452    |   194503
Range status and errors
Selected range
     Filename E:\MUSIC\Vhaldemar - Against All Kings (RRR-021).wav
     Peak level 100.0 %
     Extraction speed 3.4 X
     Range quality 100.0 %
     Test CRC F3BD35F1
     Copy CRC F3BD35F1
     Copy OK
No errors occurred
AccurateRip summary
Track  1  not present in database
Track  2  not present in database
Track  3  not present in database
Track  4  not present in database
Track  5  not present in database
Track  6  not present in database
Track  7  not present in database
Track  8  not present in database
Track  9  not present in database
Track 10  not present in database
Track 11  not present in database
Track 12  not present in database
None of the tracks are present in the AccurateRip database
End of status report
Код:
REM GENRE "Power Metal"
REM DATE 2017
REM DISCID 9F0A210C
REM COMMENT "ExactAudioCopy v1.1"
PERFORMER "Vhaldemar"
TITLE "Against All Kings (RRR-021)"
FILE "Vhaldemar - Against All Kings (RRR-021).flac" WAVE
  TRACK 01 AUDIO
    TITLE "Metalizer"
    PERFORMER "Vhaldemar"
    INDEX 01 00:00:00
  TRACK 02 AUDIO
    TITLE "1366 (Old King’s Visions Part V)"
    PERFORMER "Vhaldemar"
    INDEX 01 03:27:37
  TRACK 03 AUDIO
    TITLE "Against All Kings"
    PERFORMER "Vhaldemar"
    INDEX 01 07:24:24
  TRACK 04 AUDIO
    TITLE "Eye For An Eye"
    PERFORMER "Vhaldemar"
    INDEX 01 11:21:70
  TRACK 05 AUDIO
    TITLE "I Will Stand Forever"
    PERFORMER "Vhaldemar"
    INDEX 01 15:04:42
  TRACK 06 AUDIO
    TITLE "Vulcano"
    PERFORMER "Vhaldemar"
    INDEX 01 18:49:26
  TRACK 07 AUDIO
    TITLE "Howling At The Moon"
    PERFORMER "Vhaldemar"
    INDEX 01 19:21:72
  TRACK 08 AUDIO
    TITLE "The Last To Die"
    PERFORMER "Vhaldemar"
    INDEX 01 24:01:74
  TRACK 09 AUDIO
    TITLE "Walking In The Rain"
    PERFORMER "Vhaldemar"
    INDEX 01 28:32:57
  TRACK 10 AUDIO
    TITLE "Rebel Mind"
    PERFORMER "Vhaldemar"
    INDEX 01 32:57:61
  TRACK 11 AUDIO
    TITLE "Titans In D Minor"
    PERFORMER "Vhaldemar"
    INDEX 01 37:42:00
  TRACK 12 AUDIO
    TITLE "Point of No Return (Bonus Track)"
    PERFORMER "Vhaldemar"
    INDEX 01 39:52:52
- --
Download / Скачать

Хотите скачать бесплатно? Зарегистрируйтесь на сайте (ссылка на регистрацию). Pirat.ca - самый быстрый торрент трекер в рунете!

Как скачивать  ·   Что такое торрент  ·   Рейтинг и ограничения

Показать сообщения:    
Ответить на тему

Текущее время: Сегодня 06:55

Часовой пояс: GMT + 4



Вы не можете начинать темы
Вы не можете отвечать на сообщения
Вы не можете редактировать свои сообщения
Вы не можете удалять свои сообщения
Вы не можете голосовать в опросах
Вы не можете прикреплять файлы к сообщениям
Вы не можете скачивать файлы

Майнать ▼