(Heavy Metal) Tokyo Blade - Thousand Men Strong - 2011 [FLAC, image +.cue, lossless]

Ответить на тему
 
Автор
Сообщение

Пост 14-Мар-2018 12:52

[Q] 

sergej644

-Tokyo Blade - Thousand Men Strong--
Год издания: 2011
Страна: UK
Жанр: Heavy Metal
Продолжительность: 00:49:01-Лейбл издания:
Страна-выпуска диска: Taiwan
Номер по каталогу: IUCP-16104-Формат: FLAC
Битрейт аудио: Lossless
Тип рипа: image +.cue
Наличие сканов в содержимом раздачи: частично
-

01. Black Abyss (5:06)
02. Thousand Men Strong (4:50)
03. Lunch Case (4:23)
04. Forged In Hell's Fire (6:09)
05. No Conclusion (4:01)
06. The Ambush (3:27)
07. Killing Rays (6:37)
08. Heading Down The Road (3:14)
09. Condemned To Fire (4:25)
10. Night Of The Blade (4:11)
11. Heading Down The Road (Demo Version) (2:38)
-
Код:
Exact Audio Copy V0.99 prebeta 5 from 4. May 2009
Отчёт EAC об извлечении, выполненном 14. сентября 2011, 19:48
Tokyo Blade / Thousand Men Strong
Дисковод: TSSTcorpCDDVDW SH-S223C   Adapter: 4  ID: 0
Режим чтения                 : Достоверность
Использование точного потока : Да
Отключение кэша аудио        : Да
Использование указателей C2  : Нет
Коррекция смещения при чтении                     : 697
Способность читать области Lead-in и Lead-out     : Нет
Заполнение пропущенных сэмплов тишиной            : Да
Удаление блоков с тишиной в начале и конце        : Нет
При вычислениях CRC использовались нулевые сэмплы : Да
Интерфейс                                         : Встроенный Win32-интерфейс для Win NT/2000
Выходной формат          : Пользовательский кодировщик
Выбранный битрейт        : 1024 kBit/s
Качество                 : Высокий
Добавление ID3-тэга      : Нет
Утилита сжатия           : C:\Program Files\Exact Audio Copy\Flac\flac.exe
Дополнительные параметры : -V -8 -T "artist=%a" -T "title=%t" -T "album=%g" -T "date=%y" -T "tracknumber=%n" -T "genre=%m" %s
TOC извлечённого CD
     Трек |   Старт  | Длительность | Начальный сектор | Конечный сектор
    ---------------------------------------------------------------------
       1  |  0:00.00 |    5:06.02   |           0      |      22951
       2  |  5:06.02 |    4:50.13   |       22952      |      44714
       3  |  9:56.15 |    4:22.49   |       44715      |      64413
       4  | 14:18.64 |    6:09.36   |       64414      |      92124
       5  | 20:28.25 |    4:01.27   |       92125      |     110226
       6  | 24:29.52 |    3:27.17   |      110227      |     125768
       7  | 27:56.69 |    6:36.58   |      125769      |     155526
       8  | 34:33.52 |    3:13.47   |      155527      |     170048
       9  | 37:47.24 |    4:24.49   |      170049      |     189897
      10  | 42:11.73 |    4:11.08   |      189898      |     208730
      11  | 46:23.06 |    2:38.29   |      208731      |     220609
Характеристики диапазона извлечения и сообщения об ошибках
Выбранный диапазон
     Имя файла G:\Bufer\FLAC\Tokyo Blade - Thousand Men Strong.wav
     Пиковый уровень 98.8 %
     Качество диапазона 99.9 %
     CRC теста 90173E3A
     CRC копии 90173E3A
     Копирование... OK
Ошибок не произошло
AccurateRip: сводка
Трек  1  нет в базе данных
Трек  2  нет в базе данных
Трек  3  нет в базе данных
Трек  4  нет в базе данных
Трек  5  нет в базе данных
Трек  6  нет в базе данных
Трек  7  нет в базе данных
Трек  8  нет в базе данных
Трек  9  нет в базе данных
Трек 10  нет в базе данных
Трек 11  нет в базе данных
Ни одного трека нет в базе AccurateRip
Конец отчёта
Код:
REM GENRE "Heavy Metal"
REM DATE 2011
REM DISCID 9E0B7D0B
REM COMMENT "ExactAudioCopy v0.99pb5"
PERFORMER "Tokyo Blade"
TITLE "Thousand Men Strong"
FILE "Tokyo Blade - Thousand Men Strong.flac" WAVE
  TRACK 01 AUDIO
    TITLE "  / Black Abyss"
    PERFORMER "Tokyo Blade"
    FLAGS DCP
    INDEX 01 00:00:00
  TRACK 02 AUDIO
    TITLE "  / Thousand Men Strong"
    PERFORMER "Tokyo Blade"
    FLAGS DCP
    INDEX 00 05:04:02
    INDEX 01 05:06:02
  TRACK 03 AUDIO
    TITLE "  / Lunch Case"
    PERFORMER "Tokyo Blade"
    FLAGS DCP
    INDEX 00 09:54:15
    INDEX 01 09:56:15
  TRACK 04 AUDIO
    TITLE "  / Forged In Hell's Fire"
    PERFORMER "Tokyo Blade"
    FLAGS DCP
    INDEX 00 14:16:64
    INDEX 01 14:18:64
  TRACK 05 AUDIO
    TITLE "  / No Conclusion"
    PERFORMER "Tokyo Blade"
    FLAGS DCP
    INDEX 00 20:26:25
    INDEX 01 20:28:25
  TRACK 06 AUDIO
    TITLE "  / The Ambush"
    PERFORMER "Tokyo Blade"
    FLAGS DCP
    INDEX 00 24:27:52
    INDEX 01 24:29:52
  TRACK 07 AUDIO
    TITLE "  / Killing Rays"
    PERFORMER "Tokyo Blade"
    FLAGS DCP
    INDEX 00 27:54:69
    INDEX 01 27:56:69
  TRACK 08 AUDIO
    TITLE "  / Heading Down The Road"
    PERFORMER "Tokyo Blade"
    FLAGS DCP
    INDEX 00 34:31:52
    INDEX 01 34:33:52
  TRACK 09 AUDIO
    TITLE "  / Condemned To Fire"
    PERFORMER "Tokyo Blade"
    FLAGS DCP
    INDEX 00 37:45:24
    INDEX 01 37:47:24
  TRACK 10 AUDIO
    TITLE "  / Night Of The Blade"
    PERFORMER "Tokyo Blade"
    FLAGS DCP
    INDEX 00 42:09:73
    INDEX 01 42:11:73
  TRACK 11 AUDIO
    TITLE "  / Heading Down The Road (Demo Version)"
    PERFORMER "Tokyo Blade"
    INDEX 00 46:20:06
    INDEX 01 46:23:06
- --
Download / Скачать

Хотите скачать бесплатно? Зарегистрируйтесь на сайте (ссылка на регистрацию). Pirat.ca - самый быстрый торрент трекер в рунете!

Как скачивать  ·   Что такое торрент  ·   Рейтинг и ограничения

Показать сообщения:    
Ответить на тему

Текущее время: Сегодня 07:03

Часовой пояс: GMT + 4



Вы не можете начинать темы
Вы не можете отвечать на сообщения
Вы не можете редактировать свои сообщения
Вы не можете удалять свои сообщения
Вы не можете голосовать в опросах
Вы не можете прикреплять файлы к сообщениям
Вы не можете скачивать файлы

Майнать ▼