(Melodic Power Metal) Palantir - Lost Between Dimensions - 2017 [FLAC, image +.cue, lossless]

Ответить на тему
 
Автор
Сообщение

Пост 14-Мар-2018 12:53

[Q] 

sergej644

-Palantir - Lost Between Dimensions--
Год издания: 2017
Страна: Sweden
Жанр: Melodic Power Metal
Продолжительность: 00:54:19-Лейбл издания: Stormspell Records
Страна-выпуска диска: USA
Номер по каталогу: SSR-DL-213-Формат: FLAC
Битрейт аудио: Lossless
Тип рипа: image +.cue
Наличие сканов в содержимом раздачи: да
-

01. To Valhalla (5:37)
02. Escaping Reality (6:15)
03. War of the Worlds (4:11)
04. The Dark Crystal (0:45)
05. Revival (6:06)
06. Warriors of the Sun (4:41)
07. Tragicomedy (5:01)
08. Centre of My Life (5:37)
09. Kings and Queens (6:04)
10. Lost Between Dimensions (10:02)
-
Код:
Exact Audio Copy V1.1 from 23. June 2015
EAC extraction logfile from 7. October 2017, 0:24
Palantir / Lost Between Dimensions
Used drive  : ATAPI   DVD A  DH16ABSH   Adapter: 2  ID: 0
Read mode               : Secure
Utilize accurate stream : Yes
Defeat audio cache      : Yes
Make use of C2 pointers : No
Read offset correction                      : 6
Overread into Lead-In and Lead-Out          : No
Fill up missing offset samples with silence : Yes
Delete leading and trailing silent blocks   : No
Null samples used in CRC calculations       : Yes
Used interface                              : Installed external ASPI interface
Used output format              : User Defined Encoder
Selected bitrate                : 1024 kBit/s
Quality                         : High
Add ID3 tag                     : No
Command line compressor         : C:\Program Files (x86)\Exact Audio Copy\FLAC\FLAC.EXE
Additional command line options : -6 -V -T "ARTIST=%artist%" -T "TITLE=%title%" -T "ALBUM=%albumtitle%" -T "DATE=%year%" -T "TRACKNUMBER=%tracknr%" -T "GENRE=%genre%" -T "COMMENT=%comment%" -T "BAND=%albuminterpret%" -T "ALBUMARTIST=%albuminterpret%" -T "COMPOSER=%composer%" %haslyrics%--tag-from-file=LYRICS="%lyricsfile%"%haslyrics% -T "DISCNUMBER=%cdnumber%" -T "TOTALDISCS=%totalcds%" -T "TOTALTRACKS=%numtracks%" %hascover%--picture="%coverfile%"%hascover% %source% -o %dest%
TOC of the extracted CD
     Track |   Start  |  Length  | Start sector | End sector
    ---------------------------------------------------------
        1  |  0:00.00 |  5:37.00 |         0    |    25274
        2  |  5:37.00 |  6:15.11 |     25275    |    53410
        3  | 11:52.11 |  4:11.14 |     53411    |    72249
        4  | 16:03.25 |  0:45.07 |     72250    |    75631
        5  | 16:48.32 |  6:06.28 |     75632    |   103109
        6  | 22:54.60 |  4:41.09 |    103110    |   124193
        7  | 27:35.69 |  5:01.00 |    124194    |   146768
        8  | 32:36.69 |  5:36.46 |    146769    |   172014
        9  | 38:13.40 |  6:04.00 |    172015    |   199314
       10  | 44:17.40 | 10:01.65 |    199315    |   244454
Range status and errors
Selected range
     Filename E:\toydollsru\Palantir - Lost Between Dimensions.wav
     Peak level 98.8 %
     Extraction speed 7.0 X
     Range quality 99.9 %
     Test CRC 72624817
     Copy CRC 72624817
     Copy OK
No errors occurred
AccurateRip summary
Track  1  not present in database
Track  2  not present in database
Track  3  not present in database
Track  4  not present in database
Track  5  not present in database
Track  6  not present in database
Track  7  not present in database
Track  8  not present in database
Track  9  not present in database
Track 10  not present in database
None of the tracks are present in the AccurateRip database
End of status report
Код:
REM GENRE "Melodic Power Metal"
REM DATE 2017
REM DISCID 960CBB0A
REM COMMENT "ExactAudioCopy v1.1"
PERFORMER "Palantir"
TITLE "Lost Between Dimensions"
FILE "Palantir - Lost Between Dimensions.flac" WAVE
  TRACK 01 AUDIO
    TITLE "To Valhalla"
    PERFORMER "Palantir"
    FLAGS DCP
    INDEX 01 00:00:00
  TRACK 02 AUDIO
    TITLE "Escaping Reality"
    PERFORMER "Palantir"
    FLAGS DCP
    INDEX 01 05:37:00
  TRACK 03 AUDIO
    TITLE "War of the Worlds"
    PERFORMER "Palantir"
    FLAGS DCP
    INDEX 01 11:52:11
  TRACK 04 AUDIO
    TITLE "The Dark Crystal"
    PERFORMER "Palantir"
    FLAGS DCP
    INDEX 01 16:03:25
  TRACK 05 AUDIO
    TITLE "Revival"
    PERFORMER "Palantir"
    FLAGS DCP
    INDEX 01 16:48:32
  TRACK 06 AUDIO
    TITLE "Warriors of the Sun"
    PERFORMER "Palantir"
    FLAGS DCP
    INDEX 01 22:54:60
  TRACK 07 AUDIO
    TITLE "Tragicomedy"
    PERFORMER "Palantir"
    FLAGS DCP
    INDEX 01 27:35:69
  TRACK 08 AUDIO
    TITLE "Centre of My Life"
    PERFORMER "Palantir"
    FLAGS DCP
    INDEX 01 32:36:69
  TRACK 09 AUDIO
    TITLE "Kings and Queens"
    PERFORMER "Palantir"
    FLAGS DCP
    INDEX 01 38:13:40
  TRACK 10 AUDIO
    TITLE "Lost Between Dimensions"
    PERFORMER "Palantir"
    FLAGS DCP
    INDEX 01 44:17:40
- --
Download / Скачать

Хотите скачать бесплатно? Зарегистрируйтесь на сайте (ссылка на регистрацию). Pirat.ca - самый быстрый торрент трекер в рунете!

Как скачивать  ·   Что такое торрент  ·   Рейтинг и ограничения

Показать сообщения:    
Ответить на тему

Текущее время: Сегодня 08:06

Часовой пояс: GMT + 4



Вы не можете начинать темы
Вы не можете отвечать на сообщения
Вы не можете редактировать свои сообщения
Вы не можете удалять свои сообщения
Вы не можете голосовать в опросах
Вы не можете прикреплять файлы к сообщениям
Вы не можете скачивать файлы

Майнать ▼