(Heavy Metal) Mindless Sinner - The New Messiah - 2015 [FLAC, image +.cue, lossless]

Ответить на тему
 
Автор
Сообщение

Пост 14-Мар-2018 12:56

[Q] 

sergej644

-Mindless Sinner - The New Messiah--
Год издания: 2015
Страна: Sweden
Жанр: Heavy Metal
Продолжительность: 00:46:18-Лейбл издания: Pure Steel Records
Страна-выпуска диска: Germany
Номер по каталогу: PSRCD114-Формат: FLAC
Битрейт аудио: Lossless
Тип рипа: image +.cue
Наличие сканов в содержимом раздачи: да
-

01. Men of Steel (3:41)
02. Where Worlds Collide (5:09)
03. The New Messiah (4:49)
04. Follow Your Path (3:50)
05. Terror (4:02)
06. We're the Ones (5:22)
07. Dance of the Devil (4:58)
08. Time of Fear (4:22)
09. Step Into the Fire (4:39)
10. Metalized (5:26)
-
Код:
Exact Audio Copy V1.0 beta 6 from 9. April 2015
EAC extraction logfile from 8. November 2017, 18:03
Mindless Sinner / The New Messiah
Used drive  : Optiarc DVD RW AD-7700S   Adapter: 1  ID: 1
Read mode               : Secure
Utilize accurate stream : Yes
Defeat audio cache      : Yes
Make use of C2 pointers : No
Read offset correction                      : 48
Overread into Lead-In and Lead-Out          : No
Fill up missing offset samples with silence : Yes
Delete leading and trailing silent blocks   : No
Null samples used in CRC calculations       : Yes
Used interface                              : Native Win32 interface for Win NT & 2000
Used output format              : User Defined Encoder
Selected bitrate                : 1024 kBit/s
Quality                         : High
Add ID3 tag                     : No
Command line compressor         : C:\Program Files (x86)\Exact Audio Copy\FLAC\FLAC.EXE
Additional command line options :  -V -8 -T "Date=%year%" -T "Genre=%genre%" %source%
TOC of the extracted CD
     Track |   Start  |  Length  | Start sector | End sector
    ---------------------------------------------------------
        1  |  0:00.00 |  3:41.02 |         0    |    16576
        2  |  3:41.02 |  5:09.35 |     16577    |    39786
        3  |  8:50.37 |  4:49.00 |     39787    |    61461
        4  | 13:39.37 |  3:49.67 |     61462    |    78703
        5  | 17:29.29 |  4:01.40 |     78704    |    96818
        6  | 21:30.69 |  5:22.20 |     96819    |   120988
        7  | 26:53.14 |  4:57.59 |    120989    |   143322
        8  | 31:50.73 |  4:22.01 |    143323    |   162973
        9  | 36:12.74 |  4:39.16 |    162974    |   183914
       10  | 40:52.15 |  5:25.73 |    183915    |   208362
Range status and errors
Selected range
     Filename C:\Users\Олег\Desktop\Mindless Sinner - The New Messiah.wav
     Peak level 100.0 %
     Extraction speed 1.8 X
     Range quality 99.9 %
     Test CRC 89F6A659
     Copy CRC 89F6A659
     Copy OK
No errors occurred
AccurateRip summary
Track  1  not present in database
Track  2  not present in database
Track  3  not present in database
Track  4  not present in database
Track  5  not present in database
Track  6  not present in database
Track  7  not present in database
Track  8  not present in database
Track  9  not present in database
Track 10  not present in database
None of the tracks are present in the AccurateRip database
End of status report
Код:
REM GENRE "Heavy Metal"
REM DATE 2015
REM DISCID 6A0ADA0A
REM COMMENT "ExactAudioCopy v1.0b6"
CATALOG 4260255242976
PERFORMER "Mindless Sinner"
TITLE "The New Messiah"
FILE "Mindless Sinner - The New Messiah.flac" WAVE
  TRACK 01 AUDIO
    TITLE "Men of Steel"
    PERFORMER "Mindless Sinner"
    ISRC DEOM31500381
    INDEX 01 00:00:00
  TRACK 02 AUDIO
    TITLE "Where Worlds Collide"
    PERFORMER "Mindless Sinner"
    ISRC DEOM31500382
    INDEX 01 03:41:02
  TRACK 03 AUDIO
    TITLE "The New Messiah"
    PERFORMER "Mindless Sinner"
    ISRC DEOM31500383
    INDEX 01 08:50:37
  TRACK 04 AUDIO
    TITLE "Follow Your Path"
    PERFORMER "Mindless Sinner"
    ISRC DEOM31500384
    INDEX 01 13:39:37
  TRACK 05 AUDIO
    TITLE "Terror"
    PERFORMER "Mindless Sinner"
    ISRC DEOM31500385
    INDEX 01 17:29:29
  TRACK 06 AUDIO
    TITLE "We're the Ones"
    PERFORMER "Mindless Sinner"
    ISRC DEOM31500386
    INDEX 01 21:30:69
  TRACK 07 AUDIO
    TITLE "Dance of the Devil"
    PERFORMER "Mindless Sinner"
    ISRC DEOM31500387
    INDEX 01 26:53:14
  TRACK 08 AUDIO
    TITLE "Time of Fear"
    PERFORMER "Mindless Sinner"
    ISRC DEOM31500388
    INDEX 01 31:50:73
  TRACK 09 AUDIO
    TITLE "Step Into the Fire"
    PERFORMER "Mindless Sinner"
    ISRC DEOM31500389
    INDEX 01 36:12:74
  TRACK 10 AUDIO
    TITLE "Metalized"
    PERFORMER "Mindless Sinner"
    ISRC DEOM31500390
    INDEX 01 40:52:15
- --
Download / Скачать

Хотите скачать бесплатно? Зарегистрируйтесь на сайте (ссылка на регистрацию). Pirat.ca - самый быстрый торрент трекер в рунете!

Как скачивать  ·   Что такое торрент  ·   Рейтинг и ограничения

Показать сообщения:    
Ответить на тему

Текущее время: Сегодня 13:38

Часовой пояс: GMT + 4



Вы не можете начинать темы
Вы не можете отвечать на сообщения
Вы не можете редактировать свои сообщения
Вы не можете удалять свои сообщения
Вы не можете голосовать в опросах
Вы не можете прикреплять файлы к сообщениям
Вы не можете скачивать файлы

Майнать ▼