(Heavy Metal) John Steel & Doogie White - Everything or Nothing - 2017 [FLAC, image +.cue, lossless]

Ответить на тему
 
Автор
Сообщение

Пост 14-Мар-2018 19:29

[Q] 

sergej644

-John Steel & Doogie White - Everything or Nothing--
Год издания: 2017
Страна: UK
Жанр: Heavy Metal
Продолжительность: 00:55:46-Лейбл издания: John Steel
Страна-выпуска диска: Bulgaria
Номер по каталогу: n/n-Формат: FLAC
Битрейт аудио: Lossless
Тип рипа: image +.cue
Наличие сканов в содержимом раздачи: да
-

01. Intro (1:39)
02. Creator (5:11)
03. From Dusk 'Til Dawn (5:43)
04. Forever And Always (6:28)
05. Lost Messiah (5:10)
06. Behind Closed Doors (4:54)
07. One God (5:17)
08. Spirit Lies (4:35)
09. Behold The Night (5:01)
10. Wings Of A Storm (4:28)
11. Emperor's New Clothes (7:19)
-
Код:
Exact Audio Copy V1.1 from 23. June 2015
EAC extraction logfile from 20. November 2017, 23:33
John Steel & Doogie White / Everything Or Nothing
Used drive  : TSSTcorpCDDVDW SH-224DB   Adapter: 1  ID: 0
Read mode               : Secure
Utilize accurate stream : Yes
Defeat audio cache      : Yes
Make use of C2 pointers : No
Read offset correction                      : 6
Overread into Lead-In and Lead-Out          : No
Fill up missing offset samples with silence : Yes
Delete leading and trailing silent blocks   : No
Null samples used in CRC calculations       : Yes
Used interface                              : Native Win32 interface for Win NT & 2000
Used output format              : User Defined Encoder
Selected bitrate                : 1024 kBit/s
Quality                         : High
Add ID3 tag                     : No
Command line compressor         : C:\Program Files (x86)\Exact Audio Copy\win64\flac.exe
Additional command line options : -8 -V -T "ARTIST=%artist%" -T "TITLE=%title%" -T "ALBUM=%albumtitle%" -T "DATE=%year%" -T "TRACKNUMBER=%tracknr%" -T "GENRE=%genre%" -T "COMMENT=%comment%" %source% -o %dest%
TOC of the extracted CD
     Track |   Start  |  Length  | Start sector | End sector
    ---------------------------------------------------------
        1  |  0:00.00 |  1:39.08 |         0    |     7432
        2  |  1:39.08 |  5:11.32 |      7433    |    30789
        3  |  6:50.40 |  5:42.74 |     30790    |    56513
        4  | 12:33.39 |  6:28.33 |     56514    |    85646
        5  | 19:01.72 |  5:10.25 |     85647    |   108921
        6  | 24:12.22 |  4:54.16 |    108922    |   130987
        7  | 29:06.38 |  5:17.04 |    130988    |   154766
        8  | 34:23.42 |  4:35.26 |    154767    |   175417
        9  | 38:58.68 |  5:00.50 |    175418    |   197967
       10  | 43:59.43 |  4:28.07 |    197968    |   218074
       11  | 48:27.50 |  7:18.46 |    218075    |   250970
Range status and errors
Selected range
     Filename F:\Sket4er\John Steel & Doogie White – Everything Or Nothing  2017\John Steel & Doogie White - Everything Or Nothing.wav
     Peak level 96.3 %
     Extraction speed 3.1 X
     Range quality 100.0 %
     Test CRC D955E8F1
     Copy CRC D955E8F1
     Copy OK
No errors occurred
AccurateRip summary
Track  1  not present in database
Track  2  not present in database
Track  3  not present in database
Track  4  not present in database
Track  5  not present in database
Track  6  not present in database
Track  7  not present in database
Track  8  not present in database
Track  9  not present in database
Track 10  not present in database
Track 11  not present in database
None of the tracks are present in the AccurateRip database
End of status report
Код:
REM GENRE "Heavy Metal"
REM DATE 2017
REM DISCID 7E0D120B
REM COMMENT "ExactAudioCopy v1.1"
PERFORMER "John Steel & Doogie White"
TITLE "Everything Or Nothing"
FILE "John Steel & Doogie White - Everything Or Nothing.flac" WAVE
  TRACK 01 AUDIO
    TITLE "Intro"
    PERFORMER "John Steel & Doogie White"
    INDEX 01 00:00:00
  TRACK 02 AUDIO
    TITLE "Creator"
    PERFORMER "John Steel & Doogie White"
    INDEX 01 01:39:08
  TRACK 03 AUDIO
    TITLE "From Dusk 'Til Dawn"
    PERFORMER "John Steel & Doogie White"
    INDEX 01 06:50:40
  TRACK 04 AUDIO
    TITLE "Forever And Always"
    PERFORMER "John Steel & Doogie White"
    INDEX 01 12:33:39
  TRACK 05 AUDIO
    TITLE "Lost Messiah"
    PERFORMER "John Steel & Doogie White"
    INDEX 01 19:01:72
  TRACK 06 AUDIO
    TITLE "Behind Closed Doors"
    PERFORMER "John Steel & Doogie White"
    INDEX 01 24:12:22
  TRACK 07 AUDIO
    TITLE "One God"
    PERFORMER "John Steel & Doogie White"
    INDEX 01 29:06:38
  TRACK 08 AUDIO
    TITLE "Spirit Lies"
    PERFORMER "John Steel & Doogie White"
    INDEX 01 34:23:42
  TRACK 09 AUDIO
    TITLE "Behold The Night"
    PERFORMER "John Steel & Doogie White"
    INDEX 01 38:58:68
  TRACK 10 AUDIO
    TITLE "Wings Of A Storm"
    PERFORMER "John Steel & Doogie White"
    INDEX 01 43:59:43
  TRACK 11 AUDIO
    TITLE "Emperor's New Clothes"
    PERFORMER "John Steel & Doogie White"
    INDEX 01 48:27:50
- --
Download / Скачать

Хотите скачать бесплатно? Зарегистрируйтесь на сайте (ссылка на регистрацию). Pirat.ca - самый быстрый торрент трекер в рунете!

Как скачивать  ·   Что такое торрент  ·   Рейтинг и ограничения

Показать сообщения:    
Ответить на тему

Текущее время: Сегодня 09:15

Часовой пояс: GMT + 4



Вы не можете начинать темы
Вы не можете отвечать на сообщения
Вы не можете редактировать свои сообщения
Вы не можете удалять свои сообщения
Вы не можете голосовать в опросах
Вы не можете прикреплять файлы к сообщениям
Вы не можете скачивать файлы

Майнать ▼