(Power Metal) Blazon Stone - Down In The Dark - 2017 [FLAC, image +.cue, lossless]

Ответить на тему
 
Автор
Сообщение

Пост 14-Мар-2018 19:30

[Q] 

sergej644

-Blazon Stone - Down In The Dark--
Год издания: 2017
Страна: Sweden
Жанр: Power Metal
Продолжительность: 00:43:35-Лейбл издания: Stormspell Records
Страна-выпуска диска: EU
Номер по каталогу: SSR-DL-211-Формат: FLAC
Битрейт аудио: Lossless
Тип рипа: image +.cue
Наличие сканов в содержимом раздачи: да
-

01. The Galleons Departure (Intro) (1:24)
02. Into Victory (4:04)
03. Down In The Dark (3:33)
04. Hanged Drawn And Quartered (4:56)
05. Eagle Warriors (3:37)
06. Tavern Of The Damned (5:55)
07. Merciless Pirate King (3:39)
08. Watery Graves (3:55)
09. Rock Out (3:26)
10. 1478 (Instrumental) (0:36)
11. Bloody Inquisition (4:42)
12. Captain Of The Wild (3:47)
-
Код:
Exact Audio Copy V1.1 from 23. June 2015
EAC extraction logfile from 10. October 2017, 23:31
Blazon Stone / Down In The Dark
Used drive  : ATAPI   DVD A  DH16ABSH   Adapter: 2  ID: 0
Read mode               : Secure
Utilize accurate stream : Yes
Defeat audio cache      : Yes
Make use of C2 pointers : No
Read offset correction                      : 6
Overread into Lead-In and Lead-Out          : No
Fill up missing offset samples with silence : Yes
Delete leading and trailing silent blocks   : No
Null samples used in CRC calculations       : Yes
Used interface                              : Installed external ASPI interface
Used output format              : User Defined Encoder
Selected bitrate                : 1024 kBit/s
Quality                         : High
Add ID3 tag                     : No
Command line compressor         : C:\Program Files (x86)\Exact Audio Copy\FLAC\FLAC.EXE
Additional command line options : -6 -V -T "ARTIST=%artist%" -T "TITLE=%title%" -T "ALBUM=%albumtitle%" -T "DATE=%year%" -T "TRACKNUMBER=%tracknr%" -T "GENRE=%genre%" -T "COMMENT=%comment%" -T "BAND=%albuminterpret%" -T "ALBUMARTIST=%albuminterpret%" -T "COMPOSER=%composer%" %haslyrics%--tag-from-file=LYRICS="%lyricsfile%"%haslyrics% -T "DISCNUMBER=%cdnumber%" -T "TOTALDISCS=%totalcds%" -T "TOTALTRACKS=%numtracks%" %hascover%--picture="%coverfile%"%hascover% %source% -o %dest%
TOC of the extracted CD
     Track |   Start  |  Length  | Start sector | End sector
    ---------------------------------------------------------
        1  |  0:00.00 |  1:24.00 |         0    |     6299
        2  |  1:24.00 |  4:03.73 |      6300    |    24597
        3  |  5:27.73 |  3:33.11 |     24598    |    40583
        4  |  9:01.09 |  4:56.04 |     40584    |    62787
        5  | 13:57.13 |  3:36.67 |     62788    |    79054
        6  | 17:34.05 |  5:55.26 |     79055    |   105705
        7  | 23:29.31 |  3:38.64 |    105706    |   122119
        8  | 27:08.20 |  3:54.42 |    122120    |   139711
        9  | 31:02.62 |  3:26.33 |    139712    |   155194
       10  | 34:29.20 |  0:36.12 |    155195    |   157906
       11  | 35:05.32 |  4:42.20 |    157907    |   179076
       12  | 39:47.52 |  3:46.66 |    179077    |   196092
Range status and errors
Selected range
     Filename E:\toydollsru\Blazon Stone - Down In The Dark.wav
     Peak level 96.8 %
     Extraction speed 7.6 X
     Range quality 100.0 %
     Test CRC 00643679
     Copy CRC 00643679
     Copy OK
No errors occurred
AccurateRip summary
Track  1  not present in database
Track  2  not present in database
Track  3  not present in database
Track  4  not present in database
Track  5  not present in database
Track  6  not present in database
Track  7  not present in database
Track  8  not present in database
Track  9  not present in database
Track 10  not present in database
Track 11  not present in database
Track 12  not present in database
None of the tracks are present in the AccurateRip database
End of status report
Код:
REM GENRE "Heavy Power Metal"
REM DATE 2017
REM DISCID 980A360C
REM COMMENT "ExactAudioCopy v1.1"
PERFORMER "Blazon Stone"
TITLE "Down In The Dark"
FILE "Blazon Stone - Down In The Dark.flac" WAVE
  TRACK 01 AUDIO
    TITLE "The Galleons Departure (Intro)"
    PERFORMER "Blazon Stone"
    INDEX 01 00:00:00
  TRACK 02 AUDIO
    TITLE "Into Victory"
    PERFORMER "Blazon Stone"
    INDEX 01 01:24:00
  TRACK 03 AUDIO
    TITLE "Down In The Dark"
    PERFORMER "Blazon Stone"
    INDEX 01 05:27:73
  TRACK 04 AUDIO
    TITLE "Hanged Drawn And Quartered"
    PERFORMER "Blazon Stone"
    INDEX 01 09:01:09
  TRACK 05 AUDIO
    TITLE "Eagle Warriors"
    PERFORMER "Blazon Stone"
    INDEX 01 13:57:13
  TRACK 06 AUDIO
    TITLE "Tavern Of The Damned"
    PERFORMER "Blazon Stone"
    INDEX 01 17:34:05
  TRACK 07 AUDIO
    TITLE "Merciless Pirate King"
    PERFORMER "Blazon Stone"
    INDEX 01 23:29:31
  TRACK 08 AUDIO
    TITLE "Watery Graves"
    PERFORMER "Blazon Stone"
    INDEX 01 27:08:20
  TRACK 09 AUDIO
    TITLE "Rock Out"
    PERFORMER "Blazon Stone"
    INDEX 01 31:02:62
  TRACK 10 AUDIO
    TITLE "1478 (Instrumental)"
    PERFORMER "Blazon Stone"
    INDEX 01 34:29:20
  TRACK 11 AUDIO
    TITLE "Bloody Inquisition"
    PERFORMER "Blazon Stone"
    INDEX 01 35:05:32
  TRACK 12 AUDIO
    TITLE "Captain Of The Wild"
    PERFORMER "Blazon Stone"
    INDEX 01 39:47:52
- --
Download / Скачать

Хотите скачать бесплатно? Зарегистрируйтесь на сайте (ссылка на регистрацию). Pirat.ca - самый быстрый торрент трекер в рунете!

Как скачивать  ·   Что такое торрент  ·   Рейтинг и ограничения

Показать сообщения:    
Ответить на тему

Текущее время: Сегодня 17:53

Часовой пояс: GMT + 4



Вы не можете начинать темы
Вы не можете отвечать на сообщения
Вы не можете редактировать свои сообщения
Вы не можете удалять свои сообщения
Вы не можете голосовать в опросах
Вы не можете прикреплять файлы к сообщениям
Вы не можете скачивать файлы

Майнать ▼