(Symphonic Metal) Angel Nation - Aeon - 2017 [FLAC, image +.cue, lossless]

Ответить на тему
 
Автор
Сообщение

Пост 14-Мар-2018 19:31

[Q] 

sergej644

-Angel Nation - Aeon--
Год издания: 2017
Страна: UK
Жанр: Symphonic Metal
Продолжительность: 00:44:06-Лейбл издания: Inner Wound Recordings
Страна-выпуска диска: EU
Номер по каталогу: IW83073-Формат: FLAC
Битрейт аудио: Lossless
Тип рипа: image +.cue
Наличие сканов в содержимом раздачи: да
-

01. Burn the witch (4:09)
02. Blood is on your hands (3:52)
03. Breathe again (3:45)
04. Wonder who you are (4:06)
05. Farewell (4:49)
06. Free (4:19)
07. Enough is enough (3:35)
08. Music plays (5:20)
09. Fireflies (3:54)
10. Destination (6:17)
-
Код:
Exact Audio Copy V1.3 from 2. September 2016
Отчёт EAC об извлечении, выполненном 18. декабря 2017, 20:02
Angel Nation / Aeon
Дисковод: HL-DT-STDVDRAM GT90N   Adapter: 1  ID: 0
Режим чтения                 : Достоверность
Использование точного потока : Да
Отключение кэша аудио        : Да
Использование указателей C2  : Нет
Коррекция смещения при чтении                     : 6
Способность читать области Lead-in и Lead-out     : Нет
Заполнение пропущенных сэмплов тишиной            : Да
Удаление блоков с тишиной в начале и конце        : Нет
При вычислениях CRC использовались нулевые сэмплы : Да
Интерфейс                                         : Встроенный Win32-интерфейс для Win NT/2000
Выходной формат          : Пользовательский кодировщик
Выбранный битрейт        : 1024 kBit/s
Качество                 : Высокий
Добавление ID3-тега      : Нет
Утилита сжатия           : C:\Program Files (x86)\Exact Audio Copy\Flac\flac.exe
Дополнительные параметры : -V -8 -T "Date=%year%" -T "Genre=%genre%" %source%
TOC извлечённого CD
     Трек |   Старт  | Длительность | Начальный сектор | Конечный сектор
    ---------------------------------------------------------------------
       1  |  0:00.00 |    4:08.72   |           0      |      18671
       2  |  4:08.72 |    3:51.70   |       18672      |      36066
       3  |  8:00.67 |    3:45.18   |       36067      |      52959
       4  | 11:46.10 |    4:05.59   |       52960      |      71393
       5  | 15:51.69 |    4:48.48   |       71394      |      93041
       6  | 20:40.42 |    4:18.51   |       93042      |     112442
       7  | 24:59.18 |    3:35.35   |      112443      |     128602
       8  | 28:34.53 |    5:20.19   |      128603      |     152621
       9  | 33:54.72 |    3:54.06   |      152622      |     170177
      10  | 37:49.03 |    6:17.01   |      170178      |     198453
Характеристики диапазона извлечения и сообщения об ошибках
Выбранный диапазон
     Имя файла D:\Wlad\Загрузки\Angel Nation\2017 - Aeon\Angel Nation - 2017 - Aeon.wav
     Пиковый уровень 100.0 %
     Скорость извлечения 4.5 X
     Качество диапазона 99.9 %
     CRC теста 2B96CB92
     CRC копии 2B96CB92
     Копирование... OK
Ошибок не произошло
AccurateRip: сводка
Трек  1  отсутствует в базе данных
Трек  2  отсутствует в базе данных
Трек  3  отсутствует в базе данных
Трек  4  отсутствует в базе данных
Трек  5  отсутствует в базе данных
Трек  6  отсутствует в базе данных
Трек  7  отсутствует в базе данных
Трек  8  отсутствует в базе данных
Трек  9  отсутствует в базе данных
Трек 10  отсутствует в базе данных
Ни одного трека нет в базе AccurateRip
Конец отчёта
Код:
REM GENRE "Symphonic Rock"
REM DATE 2017
REM DISCID 6D0A560A
REM COMMENT "ExactAudioCopy v1.3"
PERFORMER "Angel Nation"
TITLE "Aeon"
REM COMPOSER ""
FILE "Angel Nation - 2017 - Aeon.flac" WAVE
  TRACK 01 AUDIO
    TITLE "Burn the witch"
    PERFORMER "Angel Nation"
    REM COMPOSER ""
    INDEX 01 00:00:00
  TRACK 02 AUDIO
    TITLE "Blood is on your hands"
    PERFORMER "Angel Nation"
    REM COMPOSER ""
    INDEX 01 04:08:72
  TRACK 03 AUDIO
    TITLE "Breathe again"
    PERFORMER "Angel Nation"
    REM COMPOSER ""
    INDEX 01 08:00:67
  TRACK 04 AUDIO
    TITLE "Wonder who you are"
    PERFORMER "Angel Nation"
    REM COMPOSER ""
    INDEX 01 11:46:10
  TRACK 05 AUDIO
    TITLE "Farewell"
    PERFORMER "Angel Nation"
    REM COMPOSER ""
    INDEX 01 15:51:69
  TRACK 06 AUDIO
    TITLE "Free"
    PERFORMER "Angel Nation"
    REM COMPOSER ""
    INDEX 01 20:40:42
  TRACK 07 AUDIO
    TITLE "Enough is enough"
    PERFORMER "Angel Nation"
    REM COMPOSER ""
    INDEX 01 24:59:18
  TRACK 08 AUDIO
    TITLE "Music plays"
    PERFORMER "Angel Nation"
    REM COMPOSER ""
    INDEX 01 28:34:53
  TRACK 09 AUDIO
    TITLE "Fireflies"
    PERFORMER "Angel Nation"
    REM COMPOSER ""
    INDEX 01 33:54:72
  TRACK 10 AUDIO
    TITLE "Destination"
    PERFORMER "Angel Nation"
    REM COMPOSER ""
    INDEX 01 37:49:03
- --
Download / Скачать

Хотите скачать бесплатно? Зарегистрируйтесь на сайте (ссылка на регистрацию). Pirat.ca - самый быстрый торрент трекер в рунете!

Как скачивать  ·   Что такое торрент  ·   Рейтинг и ограничения

Показать сообщения:    
Ответить на тему

Текущее время: Сегодня 11:03

Часовой пояс: GMT + 4



Вы не можете начинать темы
Вы не можете отвечать на сообщения
Вы не можете редактировать свои сообщения
Вы не можете удалять свои сообщения
Вы не можете голосовать в опросах
Вы не можете прикреплять файлы к сообщениям
Вы не можете скачивать файлы

Майнать ▼