Фердинанд / Ferdinand (Карлос Салдана/Carlos Saldanha) [2017 г., Семейный, комедия, мультфильм, BDRip, 720p] Dub Sub

Ответить на тему
 
Автор
Сообщение

Пост 18-Мар-2018 10:21

[Q] 

AlexDjas

Флибустьер

--Фердинанд / Ferdinand-- Производство: США / Blue Sky Studios, Davis Entertainment, Twentieth Century Fox Animation
Режиссёр: Карлос Салдана/Carlos Saldanha
Жанр: Семейный, комедия, мультфильм
Год выпуска: 2017 г.
Продолжительность: 01:48:12
Мировая премьера: 11 ноября 2017
Российская премьера: 21 декабря 2017, «Двадцатый Век Фокс СНГ»
Перевод: Профессиональный (полное дублирование)
Роли озвучивали: Джон Сина, Кейт МакКиннон, Дэвид Теннант, Бобби Каннавейл, Энтони Андерсон, Джек Гор, Джет Юргенсмейер, Найл Диас, Колин Х. Мерфи, Карлос Салдана--Описание: Фердинанд — самый добродушный бык во всей Испании. Несмотря на внушительные размеры и недюжинную силу, он с детства предпочитал сидеть на лужайке и любоваться цветами вместо того, чтобы бодаться с другими быками. По нелепой случайности Фердинанд был выбран среди других соплеменников для участия в бое быков в Мадриде.
Фердинанду предстоит отстоять свои миролюбивые убеждения и напомнить нам о том, что даже перед лицом трудностей главное — остаться собой. Ведь только так и можно изменить мир вокруг.--
Качество видео: BDRip
Контейнер: MKV
Стандарт разрешения: 720p
Видео кодек: MPEG4 AVC
Аудио кодек: DTS
Видео: AVC, 1280x536, 4800 Kbps,23,976 fps
Аудио: DTS, 48.0 KHz, 6 ch, 755 Kbps | Русский
Аудио #2: AC-3, 48.0 KHz, 6 ch, 448 Kbps | Русский
Аудио #3: AC-3, 48.0 KHz, 6 ch, 448 Kbps | Украинский
Аудио #4: DTS, 48.0 KHz, 6 ch, 1 510 Kbps | Английский
Cубтитры:Русские, украинские, английские, французские, чешские, словацские
Общее
Уникальный идентификатор : 224906009518102828886607264297957245525 (0xA933526421295EDEB550ABF6941CC255)
Полное имя : D:\Мультфильмы\Пиратка\Ferdinand_BDRip[pirat.ca].mkv
Формат : Matroska
Версия формата : Version 4 / Version 2
Размер файла : 6,04 Гбайт
Продолжительность : 1 ч. 48 м.
Общий поток : 7987 Кбит/сек
Название фильма : Ferdinand 2017 from ExKinoRay
Дата кодирования : UTC 2018-03-15 19:48:11
Программа кодирования : mkvmerge v6.9.1 ('Blue Panther') 32bit built on Apr 18 2014 18:15:44
Библиотека кодирования : libebml v1.3.0 + libmatroska v1.4.1
Видео
Идентификатор : 1
Формат : AVC
Формат/Информация : Advanced Video Codec
Профиль формата : High@L4.1
Настройки формата : CABAC / 12 Ref Frames
Параметр CABAC формата : Да
Параметр RefFrames формата : 12 кадров
Идентификатор кодека : V_MPEG4/ISO/AVC
Продолжительность : 1 ч. 48 м.
Битрейт : 4800 Кбит/сек
Ширина : 1280 пикселей
Высота : 536 пикселей
Соотношение сторон : 2,40:1
Режим частоты кадров : Постоянный
Частота кадров : 23,976 (24000/1001) кадра/сек
Цветовое пространство : YUV
Субдискретизация насыщенности : 4:2:0
Битовая глубина : 8 бит
Тип развёртки : Прогрессивная
Бит/(Пиксели*Кадры) : 0.292
Размер потока : 3,52 Гбайт (58%)
Библиотека кодирования : x264 core 130 r2273 b3065e6
Настройки программы : cabac=1 / ref=12 / deblock=1:-1:-1 / analyse=0x3:0x113 / me=umh / subme=11 / psy=1 / psy_rd=1.00:0.05 / mixed_ref=1 / me_range=32 / chroma_me=1 / trellis=2 / 8x8dct=1 / cqm=0 / deadzone=21,11 / fast_pskip=0 / chroma_qp_offset=-5 / threads=12 / lookahead_threads=2 / sliced_threads=0 / nr=0 / decimate=0 / interlaced=0 / bluray_compat=0 / constrained_intra=0 / bframes=8 / b_pyramid=2 / b_adapt=2 / b_bias=0 / direct=3 / weightb=1 / open_gop=0 / weightp=2 / keyint=250 / keyint_min=23 / scenecut=40 / intra_refresh=0 / rc_lookahead=80 / rc=2pass / mbtree=1 / bitrate=4800 / ratetol=1.0 / qcomp=0.60 / qpmin=0 / qpmax=69 / qpstep=4 / cplxblur=20.0 / qblur=0.5 / ip_ratio=1.40 / aq=1:0.60
Язык : English
Default : Да
Forced : Нет
Statistics Tags Issue : mkvmerge v21.0.0 ('Tardigrades Will Inherit The Earth') 64-bit 2018-03-15 17:25:27 / mkvmerge v6.9.1 ('Blue Panther') 32bit built on Apr 18 2014 18:15:44 2018-03-15 19:48:11
FromStats_BitRate : 4800435
FromStats_Duration : 01:48:05.563000000
FromStats_FrameCount : 155498
FromStats_StreamSize : 3891690904
Аудио #1
Идентификатор : 2
Формат : DTS
Формат/Информация : Digital Theater Systems
Идентификатор кодека : A_DTS
Продолжительность : 1 ч. 48 м.
Вид битрейта : Постоянный
Битрейт : 768 Кбит/сек
Каналы : 6 каналов
Расположение каналов : Front: L C R, Side: L R, LFE
Частота : 48,0 КГц
Частота кадров : 93,750 кадра/сек (512 SPF)
Битовая глубина : 24 бит
Метод сжатия : С потерями
Размер потока : 594 Мбайт (10%)
Заголовок : Dub [License]
Язык : Russian
Default : Да
Forced : Нет
Statistics Tags Issue : mkvmerge v21.0.0 ('Tardigrades Will Inherit The Earth') 64-bit 2018-03-15 17:25:27 / mkvmerge v6.9.1 ('Blue Panther') 32bit built on Apr 18 2014 18:15:44 2018-03-15 19:48:11
FromStats_BitRate : 767999
FromStats_Duration : 01:48:12.598000000
FromStats_FrameCount : 608681
FromStats_StreamSize : 623289344
Аудио #2
Идентификатор : 3
Формат : AC-3
Формат/Информация : Audio Coding 3
Идентификатор кодека : A_AC3
Продолжительность : 1 ч. 48 м.
Вид битрейта : Постоянный
Битрейт : 448 Кбит/сек
Каналы : 6 каналов
Расположение каналов : Front: L C R, Side: L R, LFE
Частота : 48,0 КГц
Частота кадров : 31,250 кадров/сек (1536 SPF)
Битовая глубина : 16 бит
Метод сжатия : С потерями
Размер потока : 347 Мбайт (6%)
Заголовок : Dub [License]
Язык : Russian
ServiceKind/String : Complete Main
Default : Нет
Forced : Нет
Statistics Tags Issue : mkvmerge v21.0.0 ('Tardigrades Will Inherit The Earth') 64-bit 2018-03-15 17:25:27 / mkvmerge v6.9.1 ('Blue Panther') 32bit built on Apr 18 2014 18:15:44 2018-03-15 19:48:11
FromStats_BitRate : 448000
FromStats_Duration : 01:48:12.608000000
FromStats_FrameCount : 202894
FromStats_StreamSize : 363586048
Аудио #3
Идентификатор : 4
Формат : AC-3
Формат/Информация : Audio Coding 3
Идентификатор кодека : A_AC3
Продолжительность : 1 ч. 48 м.
Вид битрейта : Постоянный
Битрейт : 448 Кбит/сек
Каналы : 6 каналов
Расположение каналов : Front: L C R, Side: L R, LFE
Частота : 48,0 КГц
Частота кадров : 31,250 кадров/сек (1536 SPF)
Битовая глубина : 16 бит
Метод сжатия : С потерями
Размер потока : 347 Мбайт (6%)
Заголовок : Dub [License]
Язык : Ukrainian
ServiceKind/String : Complete Main
Default : Нет
Forced : Нет
Statistics Tags Issue : mkvmerge v21.0.0 ('Tardigrades Will Inherit The Earth') 64-bit 2018-03-15 17:25:27 / mkvmerge v6.9.1 ('Blue Panther') 32bit built on Apr 18 2014 18:15:44 2018-03-15 19:48:11
FromStats_BitRate : 448000
FromStats_Duration : 01:48:12.608000000
FromStats_FrameCount : 202894
FromStats_StreamSize : 363586048
Аудио #4
Идентификатор : 5
Формат : DTS
Формат/Информация : Digital Theater Systems
Идентификатор кодека : A_DTS
Продолжительность : 1 ч. 48 м.
Вид битрейта : Постоянный
Битрейт : 1509 Кбит/сек
Каналы : 6 каналов
Расположение каналов : Front: L C R, Side: L R, LFE
Частота : 48,0 КГц
Частота кадров : 93,750 кадра/сек (512 SPF)
Битовая глубина : 24 бит
Метод сжатия : С потерями
Размер потока : 1,14 Гбайт (19%)
Заголовок : Original
Язык : English
Default : Нет
Forced : Нет
Statistics Tags Issue : mkvmerge v21.0.0 ('Tardigrades Will Inherit The Earth') 64-bit 2018-03-15 17:25:27 / mkvmerge v6.9.1 ('Blue Panther') 32bit built on Apr 18 2014 18:15:44 2018-03-15 19:48:11
FromStats_BitRate : 1509000
FromStats_Duration : 01:48:05.568000000
FromStats_FrameCount : 608022
FromStats_StreamSize : 1223340264
Текст #1
Идентификатор : 6
Формат : PGS
Режим смешивания : zlib
Идентификатор кодека : S_HDMV/PGS
Идентификатор кодека/Информация : Picture based subtitle format used on BDs/HD-DVDs
Язык : Russian
Default : Нет
Forced : Нет
Текст #2
Идентификатор : 7
Формат : PGS
Режим смешивания : zlib
Идентификатор кодека : S_HDMV/PGS
Идентификатор кодека/Информация : Picture based subtitle format used on BDs/HD-DVDs
Язык : Ukrainian
Default : Нет
Forced : Нет
Текст #3
Идентификатор : 8
Формат : UTF-8
Идентификатор кодека : S_TEXT/UTF8
Идентификатор кодека/Информация : UTF-8 Plain Text
Язык : English
Default : Нет
Forced : Нет
Текст #4
Идентификатор : 9
Формат : UTF-8
Идентификатор кодека : S_TEXT/UTF8
Идентификатор кодека/Информация : UTF-8 Plain Text
Заголовок : SDH
Язык : English
Default : Нет
Forced : Нет
Текст #5
Идентификатор : 10
Формат : UTF-8
Идентификатор кодека : S_TEXT/UTF8
Идентификатор кодека/Информация : UTF-8 Plain Text
Язык : French
Default : Нет
Forced : Нет
Текст #6
Идентификатор : 11
Формат : UTF-8
Идентификатор кодека : S_TEXT/UTF8
Идентификатор кодека/Информация : UTF-8 Plain Text
Язык : Czech
Default : Нет
Forced : Нет
Текст #7
Идентификатор : 12
Формат : UTF-8
Идентификатор кодека : S_TEXT/UTF8
Идентификатор кодека/Информация : UTF-8 Plain Text
Язык : Slovak
Default : Нет
Forced : Нет
Download / Скачать

Хотите скачать бесплатно? Зарегистрируйтесь на сайте (ссылка на регистрацию). Pirat.ca - самый быстрый торрент трекер в рунете!

Как скачивать  ·   Что такое торрент  ·   Рейтинг и ограничения

Показать сообщения:    
Ответить на тему

Текущее время: Сегодня 07:30

Часовой пояс: GMT + 4



Вы не можете начинать темы
Вы не можете отвечать на сообщения
Вы не можете редактировать свои сообщения
Вы не можете удалять свои сообщения
Вы не можете голосовать в опросах
Вы не можете прикреплять файлы к сообщениям
Вы не можете скачивать файлы

Майнать ▼