Путеводная звезда / The Star (Тимоти Рекарт/Timothy Reckart) [2017 г., мультфильм, фэнтези, комедия, приключения, семейный, BDRip] Dub

Ответить на тему
 
Автор
Сообщение

Пост 18-Мар-2018 10:39

[Q] 

AlexDjas

Флибустьер

--Путеводная звезда / The Star-- Производство: США, Affirm Films, Columbia Pictures, Franklin Entertainment
Режиссёр: Тимоти Рекарт/Timothy Reckart
Жанр: мультфильм, фэнтези, комедия, приключения, семейный
Год выпуска: 2017 г.
Продолжительность: 01:26:06
Мировая премьера: 15 ноября 2017
Перевод: Профессиональный (полное дублирование)
Роли озвучивали: Стивен Ян, Кигэн-Майкл Ки, Эйди Брайант, Джина Родригез, Закари Левай, Кристофер Пламмер, Винг Реймз, Габриэль Иглесиас, Келли Кларксон, Энтони Андерсон--Описание: Маленький отважный ослик по имени Бо работает на мельнице, мечтая вырваться на свободу и повидать мир. И в один прекрасный день его желание исполняется! Бо видит в небе необычайно яркую звезду и решает отправиться по пути, который она указывает. Его ждут удивительные приключения и встреча с новыми друзьями, среди которых найдется милая овечка, голубь-шутник и даже троица верблюдов. Разношерстной компании путешественников предстоит стать невольными участниками и свидетелями самого волшебного и чудесного события — Рождества.--
Качество видео: BDRip
Контейнер: AVI
Видео кодек: XviD
Аудио кодек: AC3
Видео: 720x384 (1.88:1), 23.976 fps, XviD build 67 ~1819 kbps avg, 0.27 bit/pixel
Аудио: 48 kHz, AC3 Dolby Digital, 3/2 (L,C,R,l,r) + LFE ch, ~448 kbps
Cубтитры: отсутствуют
Общее
Полное имя : D:\Мультфильмы\Пиратка\The.Star_BDRip_[pirat.ca].avi
Формат : AVI
Формат/Информация : Audio Video Interleave
Размер файла : 1,37 Гбайт
Продолжительность : 1 ч. 26 м.
Общий поток : 2277 Кбит/сек
Программа кодирования : Lavf57.83.100
Библиотека кодирования : VirtualDub build 35491/release
Видео
Идентификатор : 0
Формат : MPEG-4 Visual
Профиль формата : Advanced [email protected]
Настройки формата : BVOP2
Параметр BVOP формата : 2
Параметр QPel формата : Нет
Параметр GMC формата : Без точки перехода
Параметр матрицы формата : Default (MPEG)
Идентификатор кодека : XVID
Идентификатор кодека/Подсказка : XviD
Продолжительность : 1 ч. 26 м.
Битрейт : 1820 Кбит/сек
Ширина : 720 пикселей
Высота : 384 пикселя
Соотношение сторон : 1,85:1
Частота кадров : 23,976 (24000/1001) кадра/сек
Цветовое пространство : YUV
Субдискретизация насыщенности : 4:2:0
Битовая глубина : 8 бит
Тип развёртки : Прогрессивная
Метод сжатия : С потерями
Бит/(Пиксели*Кадры) : 0.274
Размер потока : 1,09 Гбайт (80%)
Библиотека кодирования : XviD 67
Аудио
Идентификатор : 1
Формат : AC-3
Формат/Информация : Audio Coding 3
Идентификатор кодека : 2000
Продолжительность : 1 ч. 26 м.
Вид битрейта : Постоянный
Битрейт : 448 Кбит/сек
Каналы : 6 каналов
Расположение каналов : Front: L C R, Side: L R, LFE
Частота : 48,0 КГц
Частота кадров : 31,250 кадров/сек (1536 SPF)
Битовая глубина : 16 бит
Метод сжатия : С потерями
Размер потока : 276 Мбайт (20%)
Выравнивание : Соединение по промежуткам
Продолжительность промежутка : 42 мс. (1,00 видеокадр)
Время предзагрузки промежутка : 512 мс.
ServiceKind/String : Complete Main
Download / Скачать

Хотите скачать бесплатно? Зарегистрируйтесь на сайте (ссылка на регистрацию). Pirat.ca - самый быстрый торрент трекер в рунете!

Как скачивать  ·   Что такое торрент  ·   Рейтинг и ограничения

Показать сообщения:    
Ответить на тему

Текущее время: Сегодня 09:15

Часовой пояс: GMT + 4



Вы не можете начинать темы
Вы не можете отвечать на сообщения
Вы не можете редактировать свои сообщения
Вы не можете удалять свои сообщения
Вы не можете голосовать в опросах
Вы не можете прикреплять файлы к сообщениям
Вы не можете скачивать файлы

Майнать ▼