Океаны / Oceans / Сезон: Серии: (Jacques Perrin) [2010 г., документальный, BDRip, 720p] Dub

Ответить на тему
 
Автор
Сообщение

Пост 18-Мар-2018 22:07

[Q] 

D_Ex

Корсар

-Океаны / Oceans-- Производство: Disney Nature
Жанр: документальный
Год выпуска: 2010 г.
Продолжительность: 1:43:51
Российская премьера: 9 сентября 2010
Перевод: Профессиональный (полное дублирование)
Режиссёр: Jacques Perrin-Описание: Документальный фильм с бюджетом около 80 000 000 баксов, на съёмки которого ушло более 5 лет.-Качество видео: BDRip
Контейнер: AVI
Стандарт разрешения: 720p
Видео кодек: XviD
Аудио кодек: MP3
Видео: 1280x534 pixels, 5783 kbps, 23.976 fps, 0.353 pits/pixel
Аудио: 221 kbps, 2 channels, 48 kHz
Cубтитры: отсутствуют
General
Complete name : D:\Rip\Oceans\Oceans.avi
Format : AVI
Format/Info : Audio Video Interleave
Format profile : OpenDML
File size : 4.36 GiB
Duration : 1 h 43 min
Overall bit rate mode : Variable
Overall bit rate : 6 016 kb/s
Writing library : VirtualDub build 35491/release
Video
ID : 0
Format : MPEG-4 Visual
Format profile : Advanced [email protected]
Format settings, BVOP : 1
Format settings, QPel : No
Format settings, GMC : No warppoints
Format settings, Matrix : Default (MPEG)
Muxing mode : Packed bitstream
Codec ID : XVID
Codec ID/Hint : XviD
Duration : 1 h 43 min
Bit rate : 5 783 kb/s
Width : 1 280 pixels
Height : 534 pixels
Display aspect ratio : 2.40:1
Frame rate : 23.976 (24000/1001) FPS
Color space : YUV
Chroma subsampling : 4:2:0
Bit depth : 8 bits
Scan type : Progressive
Compression mode : Lossy
Bits/(Pixel*Frame) : 0.353
Stream size : 4.19 GiB (96%)
Writing library : XviD 65
Audio
ID : 1
Format : MPEG Audio
Format version : Version 1
Format profile : Layer 3
Mode : Joint stereo
Codec ID : 55
Codec ID/Hint : MP3
Duration : 1 h 43 min
Bit rate mode : Variable
Bit rate : 221 kb/s
Minimum bit rate : 32.0 kb/s
Channel(s) : 2 channels
Sampling rate : 48.0 kHz
Compression mode : Lossy
Stream size : 164 MiB (4%)
Alignment : Aligned on interleaves
Interleave, duration : 24 ms (0.58 video frame)
Interleave, preload duration : 411 ms
Writing library : LAME3.96r
Encoding settings : -m j -V 0 -q 0 -lowpass 19.5 --vbr-old -b 32
Раздаю по будням с 9:00 до 18:00 (время московское +3GMT)
Download / Скачать

Хотите скачать бесплатно? Зарегистрируйтесь на сайте (ссылка на регистрацию). Pirat.ca - самый быстрый торрент трекер в рунете!

Как скачивать  ·   Что такое торрент  ·   Рейтинг и ограничения

Показать сообщения:    
Ответить на тему

Текущее время: Сегодня 07:29

Часовой пояс: GMT + 4



Вы не можете начинать темы
Вы не можете отвечать на сообщения
Вы не можете редактировать свои сообщения
Вы не можете удалять свои сообщения
Вы не можете голосовать в опросах
Вы не можете прикреплять файлы к сообщениям
Вы не можете скачивать файлы

Майнать ▼