(Rock) Alanis Morissette - Under Rug Swept (Japanese Edition) - 2002 [FLAC, tracks+.cue, lossless]

Ответить на тему
 
Автор
Сообщение

Пост 20-Мар-2018 01:11

[Q] 

Дядя Вова

Гроза морей

-Alanis Morissette - Under Rug Swept (Japanese Edition)-- Год издания: 2002
Страна: Canada
Жанр: Rock
Продолжительность: 01-00-15-Лейбл издания: Maverick Records
Тип альбома: Master
Страна-выпуска диска: Japan-Формат: FLAC
Битрейт аудио: lossless
Тип рипа: tracks+.cue
Наличие сканов в содержимом раздачи: да-
1. "21 Things I Want in a Lover" – 3:28
2. "Narcissus" – 3:38
3. "Hands Clean" – 4:32
4. "Flinch" – 6:03
5. "So Unsexy" – 5:09
6. "Precious Illusions" – 4:11
7. "That Particular Time" – 4:22
8. "A Man" – 4:34
9. "You Owe Me Nothing in Return" – 4:58
10. "Surrendering" – 4:35
11. "Utopia" – 5:00
12. "Sister Blister" – 4:08 1
13. "Sorry to Myself" – 5:44
Exact Audio Copy V1.0 beta 3 from 29. August 2011
EAC extraction logfile from 5. July 2013, 8:12
Alanis Morissette / Under Rug Swept
Used drive : HL-DT-STDVDRAM GH24NS50 Adapter: 2 ID: 1
Read mode : Secure
Utilize accurate stream : Yes
Defeat audio cache : Yes
Make use of C2 pointers : No
Read offset correction : 667
Overread into Lead-In and Lead-Out : No
Fill up missing offset samples with silence : Yes
Delete leading and trailing silent blocks : No
Null samples used in CRC calculations : Yes
Used interface : Native Win32 interface for Win NT & 2000
Gap handling : Appended to previous track
Used output format : User Defined Encoder
Selected bitrate : 1024 kBit/s
Quality : High
Add ID3 tag : No
Command line compressor : D:\Program Files\FLAC\flac.exe
Additional command line options : -8 -V -T "ARTIST=%artist%" -T "TITLE=%title%" -T "ALBUM=%albumtitle%" -T "DATE=%year%" -T "TRACKNUMBER=%tracknr%" -T "GENRE=%genre%" -T "PERFORMER=%albuminterpret%" -T "COMPOSER=%composer%" %haslyrics%--tag-from-file=LYRICS="%lyricsfile%"%haslyrics% -T "ALBUMARTIST=%albumartist%" -T "DISCNUMBER=%cdnumber%" -T "TOTALDISCS=%totalcds%" -T "TOTALTRACKS=%numtracks%" -T "COMMENT=%comment%" %source% -o %dest%
TOC of the extracted CD
Track | Start | Length | Start sector | End sector
---------------------------------------------------------
1 | 0:00.00 | 3:28.30 | 0 | 15629
2 | 3:28.30 | 3:38.30 | 15630 | 32009
3 | 7:06.60 | 4:31.12 | 32010 | 52346
4 | 11:37.72 | 6:03.30 | 52347 | 79601
5 | 17:41.27 | 5:08.68 | 79602 | 102769
6 | 22:50.20 | 4:11.40 | 102770 | 121634
7 | 27:01.60 | 4:21.55 | 121635 | 141264
8 | 31:23.40 | 4:33.35 | 141265 | 161774
9 | 35:57.00 | 4:57.65 | 161775 | 184114
10 | 40:54.65 | 4:35.42 | 184115 | 204781
11 | 45:30.32 | 4:58.02 | 204782 | 227133
12 | 50:28.34 | 4:11.00 | 227134 | 245958
13 | 54:39.34 | 5:41.48 | 245959 | 271581
14 | 62:53.07 | 1:03.01 | 282982 | 287707
Track 1
Filename D:\01 - 21 Things I Want In A Lover.wav
Pre-gap length 0:00:02.00
Peak level 98.8 %
Extraction speed 1.1 X
Track quality 100.0 %
Test CRC 251ED20A
Copy CRC 251ED20A
Accurately ripped (confidence 2) [315BED81] (AR v2)
Copy OK
Track 2
Filename D:\02 - Narcissus.wav
Peak level 98.8 %
Extraction speed 1.2 X
Track quality 100.0 %
Test CRC 16C0F3FD
Copy CRC 16C0F3FD
Accurately ripped (confidence 2) [DB4FF1BB] (AR v2)
Copy OK
Track 3
Filename D:\03 - Hands Clean.wav
Peak level 98.8 %
Extraction speed 1.4 X
Track quality 100.0 %
Test CRC 5EAFC1DD
Copy CRC 5EAFC1DD
Accurately ripped (confidence 2) [A49DAB8A] (AR v2)
Copy OK
Track 4
Filename D:\04 - Flinch.wav
Peak level 88.3 %
Extraction speed 1.5 X
Track quality 100.0 %
Test CRC 069AF2E8
Copy CRC 069AF2E8
Accurately ripped (confidence 2) [2AEFFAB6] (AR v2)
Copy OK
Track 5
Filename D:\05 - So Unsexy.wav
Peak level 98.8 %
Extraction speed 1.7 X
Track quality 100.0 %
Test CRC 67FA673A
Copy CRC 67FA673A
Accurately ripped (confidence 2) [C0702F56] (AR v2)
Copy OK
Track 6
Filename D:\06 - Precious Illusions.wav
Peak level 97.9 %
Extraction speed 1.7 X
Track quality 100.0 %
Test CRC 962C78DD
Copy CRC 962C78DD
Accurately ripped (confidence 2) [A4755FBC] (AR v2)
Copy OK
Track 7
Filename D:\07 - That Particular Time.wav
Peak level 98.8 %
Extraction speed 1.8 X
Track quality 100.0 %
Test CRC F28BE2FF
Copy CRC F28BE2FF
Accurately ripped (confidence 2) [21C5AD51] (AR v2)
Copy OK
Track 8
Filename D:\08 - A Man.wav
Peak level 97.8 %
Extraction speed 1.9 X
Track quality 100.0 %
Test CRC 55F7298E
Copy CRC 55F7298E
Accurately ripped (confidence 2) [F494EC58] (AR v2)
Copy OK
Track 9
Filename D:\09 - You Owe Me Nothing In Return.wav
Peak level 98.8 %
Extraction speed 2.0 X
Track quality 100.0 %
Test CRC 6EA3F77E
Copy CRC 6EA3F77E
Accurately ripped (confidence 2) [EDF734E5] (AR v2)
Copy OK
Track 10
Filename D:\10 - Surrendering.wav
Peak level 98.8 %
Extraction speed 1.7 X
Track quality 99.9 %
Test CRC B6DC6B6F
Copy CRC B6DC6B6F
Accurately ripped (confidence 2) [B17E0CC0] (AR v2)
Copy OK
Track 11
Filename D:\11 - Utopia.wav
Peak level 98.8 %
Extraction speed 2.2 X
Track quality 100.0 %
Test CRC 4CFCF008
Copy CRC 4CFCF008
Accurately ripped (confidence 2) [7DF77492] (AR v2)
Copy OK
Track 12
Filename D:\12 - Sister Blister.wav
Peak level 98.8 %
Extraction speed 1.9 X
Track quality 99.9 %
Test CRC A9FCF869
Copy CRC A9FCF869
Accurately ripped (confidence 2) [F1AA3E82] (AR v2)
Copy OK
Track 13
Filename D:\13 - Sorry 2 Myself.wav
Peak level 98.8 %
Extraction speed 2.2 X
Track quality 99.9 %
Test CRC AFF2CC94
Copy CRC AFF2CC94
Accurately ripped (confidence 2) [336DA9A5] (AR v2)
Copy OK
All tracks accurately ripped
No errors occurred
End of status report
---- CUETools DB Plugin V2.1.3
[CTDB TOCID: kJLnfBUeYFnqYLsx__Io.RSC738-] found, Submit result: kJLnfBUeYFnqYLsx__Io.RSC738- has been confirmed
[7dd10664] (1/6) No match
[8eb2aad3] (5/6) Accurately ripped
==== Log checksum 09DE052DC810A5E4D82A3422CBBADDBADC701669F639E653B34F11254D8FE0A6 ====
REM GENRE Rock
REM DATE 2002
REM DISCID BE0EFC0E
REM COMMENT "ExactAudioCopy v1.0b3"
CATALOG 4943674024827
PERFORMER "Alanis Morissette"
TITLE "Under Rug Swept"
FILE "01 - 21 Things I Want In A Lover.wav" WAVE
TRACK 01 AUDIO
TITLE "21 Things I Want In A Lover"
PERFORMER "Alanis Morissette"
ISRC USMV20100232
INDEX 01 00:00:00
FILE "02 - Narcissus.wav" WAVE
TRACK 02 AUDIO
TITLE "Narcissus"
PERFORMER "Alanis Morissette"
ISRC USMV20100233
INDEX 01 00:00:00
FILE "03 - Hands Clean.wav" WAVE
TRACK 03 AUDIO
TITLE "Hands Clean"
PERFORMER "Alanis Morissette"
ISRC USMV20100234
INDEX 01 00:00:00
FILE "04 - Flinch.wav" WAVE
TRACK 04 AUDIO
TITLE "Flinch"
PERFORMER "Alanis Morissette"
ISRC USMV20100235
INDEX 01 00:00:00
FILE "05 - So Unsexy.wav" WAVE
TRACK 05 AUDIO
TITLE "So Unsexy"
PERFORMER "Alanis Morissette"
ISRC USMV20100236
INDEX 01 00:00:00
FILE "06 - Precious Illusions.wav" WAVE
TRACK 06 AUDIO
TITLE "Precious Illusions"
PERFORMER "Alanis Morissette"
ISRC USMV20100237
INDEX 01 00:00:00
FILE "07 - That Particular Time.wav" WAVE
TRACK 07 AUDIO
TITLE "That Particular Time"
PERFORMER "Alanis Morissette"
ISRC USMV20100238
INDEX 01 00:00:00
FILE "08 - A Man.wav" WAVE
TRACK 08 AUDIO
TITLE "A Man"
PERFORMER "Alanis Morissette"
ISRC USMV20100239
INDEX 01 00:00:00
FILE "09 - You Owe Me Nothing In Return.wav" WAVE
TRACK 09 AUDIO
TITLE "You Owe Me Nothing In Return"
PERFORMER "Alanis Morissette"
ISRC USMV20100240
INDEX 01 00:00:00
FILE "10 - Surrendering.wav" WAVE
TRACK 10 AUDIO
TITLE "Surrendering"
PERFORMER "Alanis Morissette"
ISRC USMV20100241
INDEX 01 00:00:00
FILE "11 - Utopia.wav" WAVE
TRACK 11 AUDIO
TITLE "Utopia"
PERFORMER "Alanis Morissette"
ISRC USMV20100242
INDEX 01 00:00:00
FILE "12 - Sister Blister.wav" WAVE
TRACK 12 AUDIO
TITLE "Sister Blister"
PERFORMER "Alanis Morissette"
ISRC USMV20100283
INDEX 01 00:00:00
FILE "13 - Sorry 2 Myself.wav" WAVE
TRACK 13 AUDIO
TITLE "Sorry 2 Myself"
PERFORMER "Alanis Morissette"
ISRC USMV20100278
INDEX 01 00:00:00
TRACK 14 MODEx/2xxx
TITLE "Extra Track"
PERFORMER "Alanis Morissette"
INDEX 00 05:41:48
Download / Скачать

Хотите скачать бесплатно? Зарегистрируйтесь на сайте (ссылка на регистрацию). Pirat.ca - самый быстрый торрент трекер в рунете!

Как скачивать  ·   Что такое торрент  ·   Рейтинг и ограничения

Показать сообщения:    
Ответить на тему

Текущее время: Сегодня 13:20

Часовой пояс: GMT + 4



Вы не можете начинать темы
Вы не можете отвечать на сообщения
Вы не можете редактировать свои сообщения
Вы не можете удалять свои сообщения
Вы не можете голосовать в опросах
Вы не можете прикреплять файлы к сообщениям
Вы не можете скачивать файлы

Майнать ▼