Уважаемый Гость!
Вы можете поддержать проект и зарегистрироваться у наших партнеров - онлайн-стратегия MyLands. При регистрации в игре Вы получите код, который сможете активировать после регистрации на pirat.ca и получить 1000 дублонов.

Ваш код:
b504cb9d6185c3af6de5b6409bbe29f2a270a19a
 
     

Самая плохая ведьма / The Worst Witch / Сезон: 1-3 / Серии: 1-33, 35-40 (Стефан Плещински / Stefan Pleszczynski) [1998 г., фэнтези, фантастика, комедия, приключения, TVRip] [Оригинал 1998 года.] Dub

Ответить на тему
 
Автор
Сообщение

Пост 11-Мар-2018 21:26

[Q] 

Stealch

Юнга

-Самая плохая ведьма / The Worst Witch / Оригинал 1998 года.-- Производство: UK, Canada
Жанр: фэнтези, фантастика, комедия, приключения
Год выпуска: 1998 г.
Продолжительность: ~00:24:00
Мировая премьера: 22 Октября 1998
Российская премьера: 25 января 2006
Перевод: Профессиональный (полное дублирование)
Режиссёр: Стефан Плещински / Stefan Pleszczynski-В ролях: Кейт Дюшен, Кэрри Финлэй, Эмма Браун, Клер Култер, Клер Портер, Харшна Брахмбхатт, Холли Риверз, Джорджина Шеррингтон, Джоэнна Дайс, Джесика Фокс и другие.-Описание: Героиня фильма — Милдред Хаббл — поступает в Академию Кэклс, где учеников обучают искусству волшебства. В академии Милдред получает прозвище «Самая плохая ведьма» из-за того, что умудряется постоянно попадать во всевозможные неприятности.-
Качество видео: TVRip
Контейнер: AVI
Видео кодек: XviD
Аудио кодек: MP3
Video: 720x544 (1.32:1), 25 fps, XviD build 47 ~1071 kbps avg, 0.11 bit/pixel
Audio: 48 kHz, MPEG Layer 3, 2 ch, ~128.00 kbps avg
Cубтитры: отсутствуют
Отсутствует 34-ая серия, найти не смог. Трейлера так же не существует - используется фрагмент сериала.
Общее
Полное имя : The Worst Witch\The.Worst.Witch.ep.01.avi
Формат : AVI
Формат/Информация : Audio Video Interleave
Размер файла : 212 Мбайт
Продолжительность : 24 м. 31 с.
Общий поток : 1209 Кбит/сек
Программа кодирования : VirtualDubMod 1.5.4.1 (build 2178/release)
Библиотека кодирования : VirtualDub build 24415/release
Видео
Идентификатор : 0
Формат : MPEG-4 Visual
Профиль формата : Advanced [email protected]
Параметр BVOP формата : 1
Параметр QPel формата : Нет
Параметр GMC формата : Без точки перехода
Параметр матрицы формата : Выборочная
Идентификатор кодека : XVID
Идентификатор кодека/Подсказка : XviD
Продолжительность : 24 м. 31 с.
Битрейт : 1071 Кбит/сек
Ширина : 720 пикселей
Высота : 544 пикселя
Соотношение сторон : 4:3
Частота кадров : 25,000 кадров/сек
Цветовое пространство : YUV
Субдискретизация насыщенности : 4:2:0
Битовая глубина : 8 бит
Тип развёртки : Прогрессивная
Метод сжатия : С потерями
Бит/(Пиксели*Кадры) : 0.109
Размер потока : 188 Мбайт (89%)
Библиотека кодирования : XviD 1.2.0.dev47 (UTC 2006-11-01)
Аудио
Идентификатор : 1
Формат : MPEG Audio
Версия формата : Version 1
Профиль формата : Layer 3
Режим : Joint stereo
Расширение режима : MS Stereo
Идентификатор кодека : 55
Идентификатор кодека/Подсказка : MP3
Продолжительность : 24 м. 31 с.
Вид битрейта : Постоянный
Битрейт : 128 Кбит/сек
Каналы : 2 канала
Частота : 48,0 КГц
Метод сжатия : С потерями
Размер потока : 22,5 Мбайт (11%)
Выравнивание : Соединение по промежуткам
Продолжительность промежутка : 40 мс. (1,00 видеокадр)
Время предзагрузки промежутка : 504 мс.
Библиотека кодирования : LAME3.97ЄЄЄЄЄЄЄЄЄЄЄЄ
Download / Скачать

Хотите скачать бесплатно? Зарегистрируйтесь на сайте (ссылка на регистрацию). Pirat.ca - самый быстрый торрент трекер в рунете!

Как скачивать  ·   Что такое торрент  ·   Рейтинг и ограничения

Golden

Морской Волк

Пост 21-Мар-2018 16:43 (спустя 9 дней)

[Q] 

Эй, вернитесь на раздачу...
[Профиль]  [ЛС] 
Показать сообщения:    
Ответить на тему

Текущее время: Сегодня 04:02

Часовой пояс: GMT + 4



Вы не можете начинать темы
Вы не можете отвечать на сообщения
Вы не можете редактировать свои сообщения
Вы не можете удалять свои сообщения
Вы не можете голосовать в опросах
Вы не можете прикреплять файлы к сообщениям
Вы не можете скачивать файлы

▼ Вниз