Уважаемый Гость!
Вы можете поддержать проект и зарегистрироваться у наших партнеров - онлайн-стратегия MyLands. При регистрации в игре Вы получите код, который сможете активировать после регистрации на pirat.ca и получить 1000 дублонов.

Ваш код:
6cecbff440d0683ee7a93ed2f99efe6b63f73abb
 
     

Последний богатырь (Дмитрий Дьяченко / Dmitriy Dyachenko) [2017 г., комедия, семейный, фэнтези, WEB-DLRip] [iTunes]

Ответить на тему
 
Автор
Сообщение

Пост 07-Дек-2017 19:02

[Q] 

ara1205

-Последний богатырь-- Производство: Россия
Год выпуска: 2017 г.
Жанр: комедия, семейный, фэнтези
Продолжительность: 01:53:48
Мировая премьера: 26 октября 2017
Российская премьера: 26 октября 2017
Дата выхода DVD: 01 декабря 2017
Дата выхода Blu-Ray: 01 декабря 2017-Режиссёр: Дмитрий Дьяченко / Dmitriy Dyachenko-В ролях: Виктор Хориняк, Мила Сивацкая, Екатерина Вилкова, Елена Яковлева, Константин Лавроненко, Евгений Дятлов, Александр Семчев, Сергей Бурунов, Александр Кухаренко, Марина Калецкая-Описание: Иван, обычный парень, по воле случая переносится из современной Москвы в фантастическую страну Белогорье. В этом параллельном мире живут герои русских сказок, волшебство — неотъемлемая часть быта, а спорные вопросы решаются битвой на богатырских мечах. Неожиданно Иван оказывается в самом центре борьбы светлых и темных сил, вот только непонятно, почему главная роль в происходящих событиях, по всеобщему мнению, уготована именно ему.- -Качество видео: WEB-DLRip
Контейнер: AVI
Видео кодек: XviD
Аудио кодек: AC3
Видео: 720х304, 24 fps, 1447 Kbps, 0.275 bits/pixel
Аудио: 48 kHz, AC3 Dolby Digital, 6 ch, 384 Kbps
Cубтитры: отсутствуют-
Общее
Полное имя : C:\Users\Admin\Pictures\Последний богатырь\Posledniy.Bogatyr.2017.WEB-DLRip.[pirat.ca].avi
Формат : AVI
Формат/Информация : Audio Video Interleave
Размер файла : 1,46 Гбайт
Продолжительность : 1 ч. 53 м.
Общий поток : 1841 Кбит/сек
Программа кодирования : VirtualDubMod 1.5.10.2 (build 2540/release)
Библиотека кодирования : VirtualDubMod build 2540/release
Видео
Идентификатор : 0
Формат : MPEG-4 Visual
Профиль формата : Advanced [email protected]
Параметр BVOP формата : 1
Параметр QPel формата : Нет
Параметр GMC формата : Без точки перехода
Параметр матрицы формата : Выборочная
Идентификатор кодека : XVID
Идентификатор кодека/Подсказка : XviD
Продолжительность : 1 ч. 53 м.
Битрейт : 1447 Кбит/сек
Ширина : 720 пикселей
Высота : 304 пикселя
Соотношение сторон : 2,35:1
Частота кадров : 24,000 кадра/сек
Цветовое пространство : YUV
Субдискретизация насыщенности : 4:2:0
Битовая глубина : 8 бит
Тип развёртки : Прогрессивная
Метод сжатия : С потерями
Бит/(Пиксели*Кадры) : 0.275
Размер потока : 1,15 Гбайт (79%)
Библиотека кодирования : XviD 73
Аудио
Идентификатор : 1
Формат : AC-3
Формат/Информация : Audio Coding 3
Расширение режима : CM (complete main)
Параметр Endianness формата : Big
Идентификатор кодека : 2000
Продолжительность : 1 ч. 53 м.
Вид битрейта : Постоянный
Битрейт : 384 Кбит/сек
Каналы : 6 каналов
Расположение каналов : Front: L C R, Side: L R, LFE
Частота : 48,0 КГц
Битовая глубина : 16 бит
Метод сжатия : С потерями
Размер потока : 313 Мбайт (21%)
Выравнивание : Разделение по промежуткам
Продолжительность промежутка : 42 мс. (1,00 видеокадр)
Время предзагрузки промежутка : 500 мс.
-
-
Download / Скачать

Хотите скачать бесплатно? Зарегистрируйтесь на сайте (ссылка на регистрацию). Pirat.ca - самый быстрый торрент трекер в рунете!

Как скачивать  ·   Что такое торрент  ·   Рейтинг и ограничения

bo4kov

Гроза морей

538

Пост 07-Дек-2017 21:03 (спустя 2 часа 1 минута)

[Q] 

Спасибо!!! Супер!

_________________
[Профиль]  [ЛС] 

ss80

Гроза морей

36

Пост 07-Дек-2017 22:22 (спустя 1 час 19 минут)

[Q] 

Спасибо!!! Автору респект!!!
[Профиль]  [ЛС] 

clark

Флибустьер

Пост 07-Дек-2017 23:43 (спустя 1 час 20 минут)

[Q] 

спасибо респект автору

_________________
Последним смеётся тот, кто стреляет первым.
[Профиль]  [ЛС] 

Кристина119

Гроза морей

Пост 08-Дек-2017 10:29 (спустя 10 часов)

[Q] 

Понравилось, ждем 2 часть ) Лови бочку
[Профиль]  [ЛС] 

allardais

Штурман

Пост 08-Дек-2017 20:56 (спустя 10 часов)

[Q] 

Спасибо. Хорошее, простенькое кино. Даже объективно смешные моменты есть))

_________________
[Профиль]  [ЛС] 

янка-сан

Гроза морей

Пост 08-Дек-2017 21:19 (спустя 22 минуты)

[Q] 

давно не снимали сказок. приятно. как раз к месту: "я не узнаю вас в гриме")) угадать без титров, кто играет Бабу Ягу сложно. очень даже ничего. не классика. в духе современных веяний, но все же сказка. приятного просмотра. Спасибо!!! Мне понравилось
[Профиль]  [ЛС] 

fishman

Флибустьер

Пост 09-Дек-2017 22:52 (спустя 1 день 1 час)

[Q] 

Спасибо!!! rum

_________________
|___|___|___|___|___|___|___|__|__
__|__|__|_Биться головой_|___|___|
|___|___|___|__сюда!!___|___|__|__
__|___|___|___|___|___|___|__|__
[Профиль]  [ЛС] 

maksimum73

Корсар

Пост 09-Дек-2017 23:05 (спустя 13 минут)

[Q] 

Дааа классный фильм, новый взгляд на старую сказку. А Кощей оказывается не такой уж и плохой. На бабку Ёжку внимание обратил по совету янка-сан, ВПЕЧАТЛИЛО. Мне понравилось
[Профиль]  [ЛС] 

KIRST

Корсар

Пост 11-Дек-2017 13:55 (спустя 1 день 14 часов)

[Q] 

Спасибо Большое!!! Всем качать!!!
[Профиль]  [ЛС] 

italiano711

Гроза морей

42

Пост 13-Дек-2017 16:52 (спустя 2 дня 2 часа)

[Q] 

Давно ждал, с большим удовольствием посмотрю, тем более что отзывы хорошие.
Автору спасибо.))
[Профиль]  [ЛС] 

Полтос

Гроза морей

Пост 15-Дек-2017 23:14 (спустя 2 дня 6 часов)

[Q] 

Охлажу сугубо положительные отзывы, так как всё познаётся в сравнении. Студию Диснея мучают лавры великой фабрики детских грёз. Начав в России с провальной "Книги мастеров" студия сделала ещё одну попытку экранизации нашего фольклора. Да, фильм получился не так уж и плох, как первый эксперимент, но лавров Роу авторам никогда не сыскать. Есть места, где можно тупо поржать, есть - где попкорна хапануть. Но американцы ни черта не понимают ни в нас, ни в нашем фольклоре, поэтому фильм получился очередной нацеленной на снятие кассы поверхностной подделкой...
На любителя Автору респект!!!

_________________
Первый закон Прапорщика: Всё что поднимаемо - относительно!)
[Профиль]  [ЛС] 

AirPower

Корсар

Пост 17-Дек-2017 16:46 (спустя 1 день 17 часов)

[Q] 

Полтос, фильм тем и ценен, что снят для нас, а не для мериканцев, они пусть комиксы смотрят ))
[Профиль]  [ЛС] 

woger68

Корсар

Пост 12-Янв-2018 14:27 (спустя 25 дней)

[Q] 

Еще римляне говорил: пили, а потом собирай!
Даже в наших сказках раскол мирикосам нужен! фу
[Профиль]  [ЛС] 

qwers1

Шкипер

Пост 13-Янв-2018 05:13 (спустя 14 часов)

[Q] 

Хорошая сказка
[Профиль]  [ЛС] 

Пост 13-Янв-2018 10:27 (спустя 5 часов)

Топик был перенесен из форума Новинки (HD|DVD|BD| TV|SAT|PDTV| - Rips) в форум Российские фильмы
aleksey99
 

usya5

Корсар

Пост 26-Янв-2018 21:16 (спустя 13 дней)

[Q] 

А нам, в целом, понравился! Спасибо!!!
[Профиль]  [ЛС] 

lexaspirit

Пост 18-Фев-2018 23:25 (спустя 23 дня)

[Q] 

Хорошая сказка на современный лад. Очень понравился фильм

_________________
-------------------- ----------------------
[Профиль]  [ЛС] 

tilebok

Корсар

Пост 24-Мар-2018 08:58 (спустя 1 месяц 5 дней)

[Q] 

на самом деле, неплохой фильм
[Профиль]  [ЛС] 
Показать сообщения:    
Ответить на тему

Текущее время: Сегодня 17:48

Часовой пояс: GMT + 4



Вы не можете начинать темы
Вы не можете отвечать на сообщения
Вы не можете редактировать свои сообщения
Вы не можете удалять свои сообщения
Вы не можете голосовать в опросах
Вы не можете прикреплять файлы к сообщениям
Вы не можете скачивать файлы

▼ Вниз