Движение вверх (Антон Мегердичев) [2017 г., спорт, драма, WEB-DLRip] Original (RUS) + Sub (Rus)

Ответить на тему
 
Автор
Сообщение

Пост 25-Янв-2018 21:11

[Q] 

aleksey99

--Движение вверх-- Производство: Россия / Студия Тритэ
Год выпуска: 2017 г.
Жанр: спорт, драма
Продолжительность: 02:13:50--Российская премьера: 28 декабря 2017, «Централ Партнершип»--Режиссер: Антон Мегердичев--В ролях: Владимир Машков, Андрей Смоляков, Иван Колесников, Кирилл Зайцев, Джон Сэвэдж, Марат Башаров, Александра Ревенко, Виктория Толстоганова, Сергей Гармаш, Джеймс Тратас--Описание: Есть победы, которые меняют ход истории. Победы духа, победы страны, победы всего мира. Таким триумфом стали легендарные «три секунды» — выигрыш сборной СССР по баскетболу на роковой мюнхенской Олимпиаде 1972 г. Впервые за 36 лет была повержена «непобедимая» команда США. Никто даже помыслить не мог о том, что это возможно — обыграть великолепных непогрешимых американцев на Олимпийских играх! Никто, кроме советских баскетболистов (русских и грузин, украинцев и казахов, белорусов и литовцев).
Когда проигрыш означал поражение страны, когда нужно было выходить и бороться в раскаленной обстановке из-за произошедшего теракта, великий тренер сборной СССР был готов на все, лишь бы помочь своим подопечным разбить американский миф о непотопляемой команде мечты. Ведь он знал, что создал самую сильную сборную на планете, и в начале заставил поверить в это своих игроков, а затем весь мир.-- --Качество видео: WEB-DLRip
Контейнер: AVI
Видео кодек: XviD
Аудио кодек: AC3
Видео: 720x304 (2.37:1), 24.000 fps, XviD build 67 ~1359 kbps avg, 0.26 bit/pixel
Аудио: 48 kHz, AC3 Dolby Digital, 2/0 (L,R) ch, ~192 kbps
Cубтитры: Русские на иностранную речь (отдельно).
Общее
Полное имя : H:\p12\Dvizhenie Vverkh\Dvizhenie Vverkh.avi
Формат : AVI
Формат/Информация : Audio Video Interleave
Размер файла : 1,46 Гбайт
Продолжительность : 2 ч. 13 м.
Общий поток : 1561 Кбит/сек
Программа кодирования : VirtualDubMod 1.5.10.3 | www.virtualdub-fr.org || (build 2550/release)
Библиотека кодирования : VirtualDubMod build 2550/release
Видео
Идентификатор : 0
Формат : MPEG-4 Visual
Профиль формата : Advanced Simple@L5
Настройки формата : BVOP1 / Custom Matrix
Параметр BVOP формата : 1
Параметр QPel формата : Нет
Параметр GMC формата : Без точки перехода
Параметр матрицы формата : Выборочная
Идентификатор кодека : XVID
Идентификатор кодека/Подсказка : XviD
Продолжительность : 2 ч. 13 м.
Битрейт : 1360 Кбит/сек
Ширина : 720 пикселей
Высота : 304 пикселя
Соотношение сторон : 2,35:1
Частота кадров : 24,000 кадра/сек
Цветовое пространство : YUV
Субдискретизация насыщенности : 4:2:0
Битовая глубина : 8 бит
Тип развёртки : Прогрессивная
Метод сжатия : С потерями
Бит/(Пиксели*Кадры) : 0.259
Размер потока : 1,27 Гбайт (87%)
Библиотека кодирования : XviD 67
Аудио
Идентификатор : 1
Формат : AC-3
Формат/Информация : Audio Coding 3
Идентификатор кодека : 2000
Продолжительность : 2 ч. 13 м.
Вид битрейта : Постоянный
Битрейт : 192 Кбит/сек
Каналы : 2 канала
Расположение каналов : Front: L R
Частота : 48,0 КГц
Частота кадров : 31,250 кадров/сек (1536 SPF)
Битовая глубина : 16 бит
Метод сжатия : С потерями
Размер потока : 184 Мбайт (12%)
Выравнивание : Разделение по промежуткам
Продолжительность промежутка : 42 мс. (1,00 видеокадр)
Время предзагрузки промежутка : 500 мс.
ServiceKind/String : Complete Main
Трейлер
Download / Скачать

Хотите скачать бесплатно? Зарегистрируйтесь на сайте (ссылка на регистрацию). Pirat.ca - самый быстрый торрент трекер в рунете!

Как скачивать  ·   Что такое торрент  ·   Рейтинг и ограничения

sektorram

Морской Волк

Пост 26-Янв-2018 00:11 (спустя 3 часа)

[Q] 

что-то звук низкий очень а фильмец ничего достойный Автору респект!!! Пиратка рулит!
[Профиль]  [ЛС] 

sevensv

Легенда

4094

Пост 26-Янв-2018 00:31 (спустя 20 минут)

[Q] 

Спасибо!!! Лови бочку
[Профиль]  [ЛС] 

vasdas

Корсар

Пост 26-Янв-2018 03:45 (спустя 3 часа)

[Q] 

в кино всё было не добраться, хоть дома за смотрю Автору респект!!! Лови бочку
[Профиль]  [ЛС] 

жека.ру

Шкипер

90

Пост 26-Янв-2018 08:24 (спустя 4 часа)

[Q] 

За AVI отдельное спасибо Супер!
Добавлено спустя 49 минут 29 секунд:
Картинка, звук в норме.
[Профиль]  [ЛС] 

Sector_X

311

Пост 26-Янв-2018 11:10 (спустя 2 часа 45 минут)

[Q] 

Фильм достойный !!! Спасибо!!! Супер!

_________________

[Профиль]  [ЛС] 

EDVAR

Легенда

Пост 26-Янв-2018 12:11 (спустя 1 час)

[Q] 

Благодарю!! Супер!

_________________
"Как других судить-вы судьи.Как себя-вы адвокаты"
[Профиль]  [ЛС] 

zvezda_2s

Флибустьер

Пост 27-Янв-2018 13:32 (спустя 1 день 1 час)

[Q] 

Оперативненько!
[Профиль]  [ЛС] 

jofrei53

Флибустьер

Пост 27-Янв-2018 21:59 (спустя 8 часов)

[Q] 

Спасибо! Нашумевший фильм.... Посмотрим обязательно... Автору респект!!! Лови бочку
[Профиль]  [ЛС] 

boowww

Корсар

Пост 29-Янв-2018 20:41 (спустя 1 день 22 часа)

[Q] 

Смотрели в кинотеатре, очень понравилось, супер фильм, побольше бы таких) С ноута эффект совсем не тот.
[Профиль]  [ЛС] 

grosboy

Гроза морей

Пост 29-Янв-2018 21:42 (спустя 1 час 1 минута)

[Q] 

Отличный позитивный фильм, воспитывающий любовь к родине.

_________________
Щастье есть - его не может не быть...
[Профиль]  [ЛС] 

redfield

Морской Волк

Пост 05-Фев-2018 00:43 (спустя 6 дней)

[Q] 

Не зацепило вообще, далеко до "Легенды" №17
[Профиль]  [ЛС] 

Asv_062

Штурман

Пост 06-Фев-2018 23:45 (спустя 1 день 23 часа)

[Q] 

Целиком и полностью согласен!!!
[Профиль]  [ЛС] 

alexil

Лоцман

Пост 08-Фев-2018 00:19 (спустя 1 день)

[Q] 

818533Целиком и полностью согласен!!!
С кем хоть согласен-то?
[Профиль]  [ЛС] 

lexaspirit

Пост 08-Фев-2018 01:01 (спустя 42 минуты)

[Q] 

Фильм очень понравился. Побольше бы таких снимали, чтобы поднимали чувство патриотизма в народе

_________________
-------------------- ----------------------
[Профиль]  [ЛС] 

Asv_062

Штурман

Пост 08-Фев-2018 22:35 (спустя 21 час)

[Q] 

С redfield согласен. Чет цитировать не получается почему-то.
[Профиль]  [ЛС] 

Sharifulla

Корсар

Пост 24-Фев-2018 13:20 (спустя 15 дней)

[Q] 

Фильм понравился. Спасибо автор за труды. Лови бочку Супер!
[Профиль]  [ЛС] 

maksprs

Штурман

Пост 24-Фев-2018 18:31 (спустя 5 часов)

[Q] 

Я ГАВНО!!!!!!!!!!!!!!!!!!!!!!!!!!!!!!!!!
[Профиль]  [ЛС] 

tilebok

Корсар

Пост 24-Мар-2018 09:05 (спустя 27 дней)

[Q] 

на самом деле неплохой фильм, можно сказать поучительный
[Профиль]  [ЛС] 

Mustafa Sazont

Корсар

Пост 11-Май-2018 18:52 (спустя 1 месяц 18 дней)

[Q] 

Великолепный фильм. Посмотрев его возникает гордость за советский спорт и за поднимающийся уровень российского кинопроката. Владимир Машков актер с большой буквы!
[Профиль]  [ЛС] 
Показать сообщения:    
Ответить на тему

Текущее время: Сегодня 12:51

Часовой пояс: GMT + 4



Вы не можете начинать темы
Вы не можете отвечать на сообщения
Вы не можете редактировать свои сообщения
Вы не можете удалять свои сообщения
Вы не можете голосовать в опросах
Вы не можете прикреплять файлы к сообщениям
Вы не можете скачивать файлы

Майнать ▼