Уважаемый Гость!
Вы можете поддержать проект и зарегистрироваться у наших партнеров - онлайн-стратегия MyLands. При регистрации в игре Вы получите код, который сможете активировать после регистрации на pirat.ca и получить 1000 дублонов.

Ваш код:
0a5e7b9b638218ca2e4d1b91101ab3ce9d36ea42
 
     

Любовь в городе ангелов (Евгений Вихарев) [2017 г., комедия, WEB-DLRip] Original (RUS)

Ответить на тему
 
Автор
Сообщение

Пост 03-Фев-2018 13:20

[Q] 

aleksey99

--Любовь в городе ангелов--«Не упусти свою любовь!»-- Производство: Россия / Большое кино
Год выпуска: 2017 г.
Жанр: комедия
Продолжительность: 01:21:22--Российская премьера: 28 сентября 2017, «Каропрокат»--Режиссер: Евгений Вихарев--В ролях: Наталья Рудова, Микаэл Арамян, Андрей Свиридов, Константин Лавыш--Описание: В Лос Анджелесе, в самом романтичном городе в мире, встретились два самых неромантичных человека — она на первом свидании выбросила его букет в помойку, а он поил ее самым невкусным кофе в городе. Она пришла на второе свидание в одном нижнем белье, а он обманул ее, так и не решившись безрассудно своровать для нее платье в магазине. И тем не менее, это были самые красивые несколько дней в жизни каждого из них.
Будет ли у этих отношений продолжение, ведь он даже имени ее не знает? В этом городе, на песочном берегу, конечно, возможно все. Океан нашепчет им мелодию любви и где, как не в Городе Ангелов поверить в настоящую любовь. Пусть даже и на несколько дней.-- --Качество видео: WEB-DLRip
Контейнер: AVI
Видео кодек: XviD
Аудио кодек: AC3
Видео: 720x304 (2.37:1), 24.000 fps, XviD build 73 ~2208 kbps avg, 0.42 bit/pixel
Аудио: 48 kHz, AC3 Dolby Digital, 2/0 (L,R) ch, ~192 kbps
Cубтитры: отсутствуют
Общее
Полное имя : H:\Torrent2\Ljubov.v.gorode.angelov.2017.WEB-DLRip.avi
Формат : AVI
Формат/Информация : Audio Video Interleave
Размер файла : 1,37 Гбайт
Продолжительность : 1 ч. 21 м.
Общий поток : 2410 Кбит/сек
Программа кодирования : VirtualDubMod 1.5.10.3 (build 2550/release)
Библиотека кодирования : VirtualDubMod build 2550/release
Видео
Идентификатор : 0
Формат : MPEG-4 Visual
Профиль формата : Advanced [email protected]
Настройки формата : BVOP1 / Custom Matrix
Параметр BVOP формата : 1
Параметр QPel формата : Нет
Параметр GMC формата : Без точки перехода
Параметр матрицы формата : Выборочная
Идентификатор кодека : XVID
Идентификатор кодека/Подсказка : XviD
Продолжительность : 1 ч. 21 м.
Битрейт : 2209 Кбит/сек
Ширина : 720 пикселей
Высота : 304 пикселя
Соотношение сторон : 2,35:1
Частота кадров : 24,000 кадра/сек
Цветовое пространство : YUV
Субдискретизация насыщенности : 4:2:0
Битовая глубина : 8 бит
Тип развёртки : Прогрессивная
Метод сжатия : С потерями
Бит/(Пиксели*Кадры) : 0.420
Размер потока : 1,26 Гбайт (92%)
Библиотека кодирования : XviD 73
Аудио
Идентификатор : 1
Формат : AC-3
Формат/Информация : Audio Coding 3
Идентификатор кодека : 2000
Продолжительность : 1 ч. 21 м.
Вид битрейта : Постоянный
Битрейт : 192 Кбит/сек
Каналы : 2 канала
Расположение каналов : Front: L R
Частота : 48,0 КГц
Частота кадров : 31,250 кадров/сек (1536 SPF)
Битовая глубина : 16 бит
Метод сжатия : С потерями
Размер потока : 112 Мбайт (8%)
Выравнивание : Разделение по промежуткам
Продолжительность промежутка : 42 мс. (1,00 видеокадр)
Время предзагрузки промежутка : 500 мс.
ServiceKind/String : Complete Main
Трейлер
Download / Скачать

Хотите скачать бесплатно? Зарегистрируйтесь на сайте (ссылка на регистрацию). Pirat.ca - самый быстрый торрент трекер в рунете!

Как скачивать  ·   Что такое торрент  ·   Рейтинг и ограничения

black63

Шкипер

Пост 03-Фев-2018 14:16 (спустя 56 минут)

[Q] 

Рейтинг слабоват как фильм?
[Профиль]  [ЛС] 

densaface

Лоцман

Пост 04-Фев-2018 18:56 (спустя 1 день 4 часа)

[Q] 

каким чудом я этот шлак закачал так и не понял, терпения досмотреть до середины не хватило даже у жены, которая казалось бы целевая аудитория, ей нравится всякая любовь-морковь... Вообще давно уже зарекся не скачиваать все фильмы этого Андреасяна, вы посмотрите на титры, там же вся армянская диаспора и видимо вся родня до седьмого колена, ага, прямо род каких-то супер "талантливых" киношников, фильмы которых не вылазиют из рейтингов самого отборного шлака несмотря на любые денежные вливания.
[Профиль]  [ЛС] 

Barskavkaz

Корсар

Пост 04-Фев-2018 20:21 (спустя 1 час 25 минут)

[Q] 

время зря потратил

_________________
Д.Тк
[Профиль]  [ЛС] 

japonovod

Лоцман

Пост 05-Фев-2018 06:45 (спустя 10 часов)

[Q] 

Устроил семейный просмотр. Жена через 10 мин. оценила - тягомотина. Теща уснула на половине. Стиснув зубы, досмотрел, чтобы рассказать теще, чем закончилось. Русский менталитет не позволил оценить тонкий армянский юмор.
[Профиль]  [ЛС] 

zvezda_2s

Флибустьер

Пост 07-Фев-2018 12:17 (спустя 2 дня 5 часов)

[Q] 

Все понятно. Спасибо за предостережение.
[Профиль]  [ЛС] 

tilebok

Корсар

Пост 24-Мар-2018 09:08 (спустя 1 месяц 16 дней)

[Q] 

так, что совсем нет смысла качать?
[Профиль]  [ЛС] 
Показать сообщения:    
Ответить на тему

Текущее время: Сегодня 02:58

Часовой пояс: GMT + 4



Вы не можете начинать темы
Вы не можете отвечать на сообщения
Вы не можете редактировать свои сообщения
Вы не можете удалять свои сообщения
Вы не можете голосовать в опросах
Вы не можете прикреплять файлы к сообщениям
Вы не можете скачивать файлы

▼ Вниз