Планета Земля 2 / Planet Earth II / Мини-сериал / Серии: 1-6 (6) (Джастин Андерсон / Justin Anderson) [2016 г., документальный, BDRip, 1080p] DVO (Омикрон) + Original (Eng) + Sub (Eng)

Ответить на тему
 
Автор
Сообщение

Пост 29-Апр-2017 16:25

[Q] 

TERMOS

Легенда

-Планета Земля 2 / Planet Earth II
(Мини-сериал)
-- Производство: Великобритания | BBC
Жанр: документальный
Год выпуска: 2016 г.
Продолжительность: 6x ~01:00:00
Перевод: Профессиональный (двухголосый, закадровый)
Оригинальный аудиопоток: английский
Режиссер: Джастин Андерсон / Justin Anderson-В ролях: Дэвид Аттенборо / David Attenborough-Описание: Дэвид Аттенборо представляет серию документальных фильмов, исследуя, как животные выживают в самых известных местах обитания на земле.
- - -Качество видео: BDRip
Источник: Planet.Earth.II.S01.COMPLETE.BluRay-o0o
Контейнер: MKV
Стандарт разрешения: 1080p
Видео кодек: H.264/AVC
Аудио кодек: DTS
Видео: 1920x1080 at 25,000 fps, x264@L4.1, ~14.0 Mbps avg
Аудио: Russian: 48 kHz/16-bit, DTS, 3/2 (L,C,R,l,r) + LFE ch, ~1509 kbps |Двухголосый закадровый, студия «Омикрон»|
Аудио #2: English: 48 kHz/16-bit, DTS, 3/2 (L,C,R,l,r) + LFE ch, ~1509 kbps|Дэвид Аттенборо / David Attenborough|
Cубтитры: English (SDH), Croatian, Dutch, French, Greek, Polish, Slovenian, Vietnamese
• Русская дорожка получена наложением чистого голоса. Перевод Виктора Петренко.
• Перевод и озвучивание осуществлено в рамках сервиса от HDCLUB "Озвучивание".
Код:
Format                      : Matroska
Format version              : Version 4 / Version 2
File size                   : 7.09 GiB
Duration                    : 58mn 35s
Overall bit rate            : 17.3 Mbps
Movie name                  : Create by DeTorquemada for HDCLUB
Encoded date                : UTC 2017-03-15 18:49:20
Writing application         : mkvmerge v8.3.0 ('Over the Horizon') 64bit
Writing library             : libebml v1.3.1 + libmatroska v1.4.2
Video
ID                          : 1
Format                      : AVC
Format/Info                 : Advanced Video Codec
Format profile              : High@L4.1
Format settings, CABAC      : Yes
Format settings, ReFrames   : 4 frames
Codec ID                    : V_MPEG4/ISO/AVC
Duration                    : 58mn 35s
Bit rate                    : 14.0 Mbps
Width                       : 1 920 pixels
Height                      : 1 080 pixels
Display aspect ratio        : 16:9
Frame rate mode             : Constant
Frame rate                  : 25.000 fps
Color space                 : YUV
Chroma subsampling          : 4:2:0
Bit depth                   : 8 bits
Scan type                   : Progressive
Bits/(Pixel*Frame)          : 0.269
Stream size                 : 5.72 GiB (81%)
Title                       : Планета Земля 2. Эпизод 1: Острова / Planet Earth II. Episode 1: Islands (2016)- Realise for HDCLUB
Writing library             : x264 core 148 r2721 72d53ab
Encoding settings           : cabac=1 / ref=4 / deblock=1:-3:-3 / analyse=0x3:0x113 / me=umh / subme=10 / psy=1 / psy_rd=1.00:0.00 / mixed_ref=1 / me_range=32 / chroma_me=1 / trellis=2 / 8x8dct=1 / cqm=0 / deadzone=21,11 / fast_pskip=1 / chroma_qp_offset=-2 / threads=6 / lookahead_threads=1 / sliced_threads=0 / nr=0 / decimate=1 / interlaced=0 / bluray_compat=0 / constrained_intra=0 / bframes=8 / b_pyramid=2 / b_adapt=2 / b_bias=0 / direct=1 / weightb=1 / open_gop=0 / weightp=2 / keyint=250 / keyint_min=25 / scenecut=40 / intra_refresh=0 / rc_lookahead=40 / rc=crf / mbtree=0 / crf=18.0 / qcomp=0.60 / qpmin=0 / qpmax=69 / qpstep=4 / vbv_maxrate=50000 / vbv_bufsize=62500 / crf_max=0.0 / nal_hrd=none / filler=0 / ip_ratio=1.40 / pb_ratio=1.30 / aq=1:0.80
Language                    : English
Default                     : Yes
Forced                      : No
Matrix coefficients         : BT.709
Color range                 : Limited
Audio #1
ID                          : 2
Format                      : DTS
Format/Info                 : Digital Theater Systems
Mode                        : 16
Format settings, Endianness : Big
Codec ID                    : A_DTS
Duration                    : 58mn 35s
Bit rate mode               : Constant
Bit rate                    : 1 509 Kbps
Channel(s)                  : 6 channels
Channel positions           : Front: L C R, Side: L R, LFE
Sampling rate               : 48.0 KHz
Bit depth                   : 16 bits
Compression mode            : Lossy
Stream size                 : 632 MiB (9%)
Title                       : DTS 5.1 @ 1509 kbps - Двухголосый закадровый, студия «Омикрон»
Language                    : Russian
Default                     : Yes
Forced                      : No
Audio #2
ID                          : 3
Format                      : DTS
Format/Info                 : Digital Theater Systems
Mode                        : 16
Format settings, Endianness : Big
Codec ID                    : A_DTS
Duration                    : 58mn 35s
Bit rate mode               : Constant
Bit rate                    : 1 509 Kbps
Channel(s)                  : 6 channels
Channel positions           : Front: L C R, Side: L R, LFE
Sampling rate               : 48.0 KHz
Bit depth                   : 16 bits
Compression mode            : Lossy
Stream size                 : 632 MiB (9%)
Title                       : DTS 5.1 @ 1509 kbps - Narrated by David Attenborough
Language                    : English
Default                     : No
Forced                      : No
Text #1
ID                          : 4
Format                      : UTF-8
Codec ID                    : S_TEXT/UTF8
Codec ID/Info               : UTF-8 Plain Text
Title                       : Subtitles/Captions (SDH)
Language                    : English
Default                     : No
Forced                      : No
Text #2
ID                          : 5
Format                      : UTF-8
Codec ID                    : S_TEXT/UTF8
Codec ID/Info               : UTF-8 Plain Text
Title                       : Subtitles/Captions
Language                    : Croatian
Default                     : No
Forced                      : No
Text #3
ID                          : 6
Format                      : UTF-8
Codec ID                    : S_TEXT/UTF8
Codec ID/Info               : UTF-8 Plain Text
Title                       : Subtitles/Captions
Language                    : Dutch
Default                     : No
Forced                      : No
Text #4
ID                          : 7
Format                      : UTF-8
Codec ID                    : S_TEXT/UTF8
Codec ID/Info               : UTF-8 Plain Text
Title                       : Subtitles/Captions
Language                    : French
Default                     : No
Forced                      : No
Text #5
ID                          : 8
Format                      : UTF-8
Codec ID                    : S_TEXT/UTF8
Codec ID/Info               : UTF-8 Plain Text
Title                       : Subtitles/Captions
Language                    : Greek
Default                     : No
Forced                      : No
Text #6
ID                          : 9
Format                      : UTF-8
Codec ID                    : S_TEXT/UTF8
Codec ID/Info               : UTF-8 Plain Text
Title                       : Subtitles/Captions
Language                    : Polish
Default                     : No
Forced                      : No
Text #7
ID                          : 10
Format                      : UTF-8
Codec ID                    : S_TEXT/UTF8
Codec ID/Info               : UTF-8 Plain Text
Title                       : Subtitles/Captions
Language                    : Slovenian
Default                     : No
Forced                      : No
Text #8
ID                          : 11
Format                      : UTF-8
Codec ID                    : S_TEXT/UTF8
Codec ID/Info               : UTF-8 Plain Text
Title                       : Subtitles/Captions
Language                    : Vietnamese
Default                     : No
Forced                      : No
Menu
00:00:00.000                : en:
00:11:55.678                : en:
00:18:03.000                : en:
00:32:22.000                : en:
00:41:18.679                : en:
00:49:56.559                : en:
Описание: Удаленные острова предлагают убежище для некоторых из самых странных и редких существ на планеты. На одном из идиллических карибских островов изолированном от хищников, редкий карликовый ленивец мирно существует и процветает совместно с гнездящимися там альбатросами.
Но за жизнь на островах всегда приходится чем-то платить. На Галапагосских островах, молодые морские игуаны должны спасаться от натиска смертельно опасных змей-гонщиков в момент своего появления из яиц, отложенных в песке. На субантарктической острове Заводовски, условия жизни по-прежнему остаются такими же экстремальными. Каждый день, полтора миллиона пингвины борются против скал и свирепых волн, чтобы попасть или покинуть остров.
Описание: Документальный фильм о дикой природе с Дэвидом Аттенборо продолжает уникальный взгляд изнутри на скрытую жизнь обитающих в горах животных.
Описание: Джунгли - самые густонаселенные места обитания на планете. Таинственные миры, где необыкновенные животные конкурируют между собой в попытках выжить.
Описание: Пустыни, места заставляющие животных придумывать хитроумные способы справиться с враждебными условиями, приводящими к возникновению самых невероятных историй выживания на Земле.
Описание: Луга охватывают одну четверть всей суши и дают приют большому числу существ дикой природы. Но чтобы выжить здесь, животные должны переносить самые враждебные сезонные изменения на планете. И причудливые сайгаки в Азии, и гигантские муравьи, в Бразилии живущие на лугах каждый по-своему приспособился, чтобы справиться с этими крайностями. В затопленном Окаванго львы вступают в бой с грозными буйволами, в саваннах пчелы-едоки используют слонов, чтобы поймать добычу - насекомых, а в морозной северной тундре карибу отправляется в дальние миграции...
Описание: Города являются новейшей средой обитания на планете Земля. Серия расскажет о частичке дикой природы в наших городах.
Download / Скачать

Хотите скачать бесплатно? Зарегистрируйтесь на сайте (ссылка на регистрацию). Pirat.ca - самый быстрый торрент трекер в рунете!

Как скачивать  ·   Что такое торрент  ·   Рейтинг и ограничения



Последний раз редактировалось: TERMOS (2017-04-29 16:57), всего редактировалось 1 раз

TERMOS ®

Легенда

19900

Пост 29-Апр-2017 16:40 (спустя 14 минут)

[Q] 

Шикарнейший сериал! Настоятельно рекомендую! ay

_________________
[Профиль]  [ЛС] 

anton966

10845

Пост 29-Апр-2017 16:47 (спустя 7 минут)

[Q] 

796020как животные решать проблемы выживания
google translate ? bj

_________________
" ...потому что во многой мудрости много печали; и кто умножает познания, умножает скорбь" ( Еккл 1:17,18)
[Профиль]  [ЛС] 

TERMOS ®

Легенда

19900

Пост 29-Апр-2017 16:57 (спустя 10 минут)

[Q] 

anton966, bk

_________________
[Профиль]  [ЛС] 

Мерзавец

Морской Волк

Пост 29-Апр-2017 22:50 (спустя 5 часов)

[Q] 

TERMOS, сенкс....заберу на просмотр. Всех благ!
[Профиль]  [ЛС] 

pvm

Флибустьер

Пост 30-Апр-2017 18:51 (спустя 20 часов)

[Q] 

Сериал выше всяких похвал
[Профиль]  [ЛС] 

Гоцик

Штурман

Пост 01-Май-2017 15:59 (спустя 21 час)

[Q] 

Спасибо. Супер! Раздающему респект!
[Профиль]  [ЛС] 

sandikx

Лоцман

Пост 24-Мар-2018 19:04 (спустя 10 месяцев 23 дня)

[Q] 

Поддайте скорости, плизззз.
[Профиль]  [ЛС] 
Показать сообщения:    
Ответить на тему

Текущее время: Сегодня 11:04

Часовой пояс: GMT + 4



Вы не можете начинать темы
Вы не можете отвечать на сообщения
Вы не можете редактировать свои сообщения
Вы не можете удалять свои сообщения
Вы не можете голосовать в опросах
Вы не можете прикреплять файлы к сообщениям
Вы не можете скачивать файлы

Майнать ▼