(Jazz) Andy Kirk And His Twelve Clouds Of Joy (1939-1940) - 1992 [FLAC, tracks+.cue, lossless]

Ответить на тему
 
Автор
Сообщение

Пост 21-Мар-2018 03:31

[Q] 

Дядя Вова

Гроза морей

-Andy Kirk And His Twelve Clouds Of Joy {Chronological 640}-- Год издания: 1939-1940
Страна: USA
Жанр: Jazz
Продолжительность: 01:04:42-Лейбл издания: Classics
Тип альбома: Compilant
Страна-выпуска диска: E.E.C.-Формат: FLAC
Битрейт аудио: lossless
Тип рипа: tracks+.cue
Наличие сканов в содержимом раздачи: да-
01 - You Set Me On Fire
02 - (I Guess) I'll Never Learn
03 - Close To Five
04 - Floyd's Guitar Blues
05 - (I Wanna Go Where You Go, Do What You Do) Then I'll Be Happy
06 - S'posin'
07 - I'll Never Fail You
08 - Why Don't I Get Wise To Myself
09 - I'm Getting Nowhere With You
10 - I Don't Stand A Ghost Of A Chance With You
11 - Please Don't Talk About Me When I'm Gone
12 - Big Jim Blues
13 - Wham (Re-Bop-Boom-Bam!)
14 - Love Is The Thing
15 - Why Go On Pretending
16 - It Always Will Be You
17 - Fine And Mellow
18 - Scratchin' In The Gravel
19 - Fifteen Minute Intermission
20 - Take Those Blues Away
21 - Now I Lay Me Down To Dream
22 - There Is No Greater Love
EAC extraction logfile from 9. March 2008, 3:26 for CD
Andy Kirk / 1939-1940
Used drive : HL-DT-STCDRW/DVD GCC4482 Adapter: 1 ID: 0
Read mode : Secure with NO C2, accurate stream, disable cache
Read offset correction : 6
Overread into Lead-In and Lead-Out : No
Used output format : C:\Eac\Codecs\flac.exe (User Defined Encoder)
320 kBit/s
Additional command line options : -8 -V -T "artist=%a" -T "title=%t" -T "album=%g" -T "date=%y" -T "tracknumber=%n" -T "genre=%m" -T "comment=EAC Flac 1.1.2 -8" %s
Other options :
Fill up missing offset samples with silence : Yes
Delete leading and trailing silent blocks : No
Installed external ASPI interface
Track 1
Filename C:\Documents and Settings\kirk\01 - You Set Me On Fire.wav
Pre-gap length 0:00:02.42
Peak level 74.4 %
Track quality 100.0 %
Test CRC 75A40AE4
Copy CRC 75A40AE4
Copy OK
Track 2
Filename C:\Documents and Settings\kirk\02 - (I Guess) I'll Never Learn.wav
Pre-gap length 0:00:02.06
Peak level 88.8 %
Track quality 100.0 %
Test CRC C02E5F4B
Copy CRC C02E5F4B
Copy OK
Track 3
Filename C:\Documents and Settings\kirk\03 - Close To Five.wav
Pre-gap length 0:00:02.20
Peak level 82.8 %
Track quality 99.9 %
Test CRC 53E70A2C
Copy CRC 53E70A2C
Copy OK
Track 4
Filename C:\Documents and Settings\kirk\04 - Floyd's Guitar Blues.wav
Pre-gap length 0:00:02.06
Peak level 93.7 %
Track quality 99.9 %
Test CRC C658F8B1
Copy CRC C658F8B1
Copy OK
Track 5
Filename C:\Documents and Settings\kirk\05 - (I Wanna Go Where You Go, Do What You Do) Then I'll Be Happy.wav
Pre-gap length 0:00:02.50
Peak level 72.8 %
Track quality 100.0 %
Test CRC 48D68B51
Copy CRC 48D68B51
Copy OK
Track 6
Filename C:\Documents and Settings\kirk\06 - S'posin'.wav
Pre-gap length 0:00:02.04
Peak level 77.4 %
Track quality 100.0 %
Test CRC 0569127D
Copy CRC 0569127D
Copy OK
Track 7
Filename C:\Documents and Settings\kirk\07 - I'll Never Fail You.wav
Pre-gap length 0:00:02.17
Peak level 74.4 %
Track quality 100.0 %
Test CRC 8D023C82
Copy CRC 8D023C82
Copy OK
Track 8
Filename C:\Documents and Settings\kirk\08 - Why Don't I Get Wise To Myself.wav
Pre-gap length 0:00:02.64
Peak level 87.5 %
Track quality 100.0 %
Test CRC B935B455
Copy CRC B935B455
Copy OK
Track 9
Filename C:\Documents and Settings\kirk\09 - I'm Getting Nowhere With You.wav
Pre-gap length 0:00:02.09
Peak level 79.1 %
Track quality 100.0 %
Test CRC 5CEA96D8
Copy CRC 5CEA96D8
Copy OK
Track 10
Filename C:\Documents and Settings\kirk\10 - I Don't Stand A Ghost Of A Chance With You.wav
Pre-gap length 0:00:01.93
Peak level 70.7 %
Track quality 99.9 %
Test CRC 79DA38B2
Copy CRC 79DA38B2
Copy OK
Track 11
Filename C:\Documents and Settings\kirk\11 - Please Don't Talk About Me When I'm Gone.wav
Pre-gap length 0:00:01.40
Peak level 87.4 %
Track quality 100.0 %
Test CRC 5A181384
Copy CRC 5A181384
Copy OK
Track 12
Filename C:\Documents and Settings\kirk\12 - Big Jim Blues.wav
Pre-gap length 0:00:01.97
Peak level 70.5 %
Track quality 100.0 %
Test CRC 92309415
Copy CRC 92309415
Copy OK
Track 13
Filename C:\Documents and Settings\kirk\13 - Wham (Re-Bop-Boom-Bam!).wav
Pre-gap length 0:00:02.00
Peak level 69.6 %
Track quality 100.0 %
Test CRC 21C9565F
Copy CRC 21C9565F
Copy OK
Track 14
Filename C:\Documents and Settings\kirk\14 - Love Is The Thing.wav
Pre-gap length 0:00:02.26
Peak level 83.6 %
Track quality 100.0 %
Test CRC 2877A8BB
Copy CRC 2877A8BB
Copy OK
Track 15
Filename C:\Documents and Settings\kirk\15 - Why Go On Pretending.wav
Pre-gap length 0:00:02.20
Peak level 81.9 %
Track quality 100.0 %
Test CRC AF248187
Copy CRC AF248187
Copy OK
Track 16
Filename C:\Documents and Settings\kirk\16 - It Always Will Be You.wav
Pre-gap length 0:00:02.02
Peak level 72.3 %
Track quality 100.0 %
Test CRC 676BA3F3
Copy CRC 676BA3F3
Copy OK
Track 17
Filename C:\Documents and Settings\kirk\17 - Fine And Mellow.wav
Pre-gap length 0:00:02.44
Peak level 84.4 %
Track quality 100.0 %
Test CRC 27EAA9C6
Copy CRC 27EAA9C6
Copy OK
Track 18
Filename C:\Documents and Settings\kirk\18 - Scratchin' In The Gravel.wav
Pre-gap length 0:00:02.06
Peak level 72.6 %
Track quality 100.0 %
Test CRC CE59F12D
Copy CRC CE59F12D
Copy OK
Track 19
Filename C:\Documents and Settings\kirk\19 - Fifteen Minute Intermission.wav
Pre-gap length 0:00:02.22
Peak level 76.2 %
Track quality 99.9 %
Test CRC 41F80072
Copy CRC 41F80072
Copy OK
Track 20
Filename C:\Documents and Settings\kirk\20 - Take Those Blues Away.wav
Pre-gap length 0:00:02.06
Peak level 87.2 %
Track quality 100.0 %
Test CRC 0A463A30
Copy CRC 0A463A30
Copy OK
Track 21
Filename C:\Documents and Settings\kirk\21 - Now I Lay Me Down To Dream.wav
Pre-gap length 0:00:02.53
Peak level 71.6 %
Track quality 100.0 %
Test CRC 08C55672
Copy CRC 08C55672
Copy OK
Track 22
Filename C:\Documents and Settings\kirk\22 - There Is No Greater Love.wav
Pre-gap length 0:00:01.82
Peak level 74.2 %
Track quality 100.0 %
Test CRC AF561E36
Copy CRC AF561E36
Copy OK
No errors occured
End of status report
REM DISCID 370F3616
REM COMMENT "ExactAudioCopy v0.95b4"
PERFORMER "Andy Kirk"
TITLE "1939-1940"
FILE "01 - You Set Me On Fire.wav" WAVE
TRACK 01 AUDIO
TITLE "You Set Me On Fire"
PERFORMER "Andy Kirk"
PREGAP 00:00:32
INDEX 01 00:00:00
TRACK 02 AUDIO
TITLE "(I Guess) I'll Never Learn"
PERFORMER "Andy Kirk"
INDEX 00 02:55:60
FILE "02 - (I Guess) I'll Never Learn.wav" WAVE
INDEX 01 00:00:00
TRACK 03 AUDIO
TITLE "Close To Five"
PERFORMER "Andy Kirk"
INDEX 00 03:10:38
FILE "03 - Close To Five.wav" WAVE
INDEX 01 00:00:00
TRACK 04 AUDIO
TITLE "Floyd's Guitar Blues"
PERFORMER "Andy Kirk"
INDEX 00 02:53:67
FILE "04 - Floyd's Guitar Blues.wav" WAVE
INDEX 01 00:00:00
TRACK 05 AUDIO
TITLE "(I Wanna Go Where You Go, Do What You Do) Then I'll Be Happy"
PERFORMER "Andy Kirk"
INDEX 00 03:07:05
FILE "05 - (I Wanna Go Where You Go, Do What You Do) Then I'll Be Happy.wav" WAVE
INDEX 01 00:00:00
TRACK 06 AUDIO
TITLE "S'posin'"
PERFORMER "Andy Kirk"
INDEX 00 02:29:62
FILE "06 - S'posin'.wav" WAVE
INDEX 01 00:00:00
TRACK 07 AUDIO
TITLE "I'll Never Fail You"
PERFORMER "Andy Kirk"
INDEX 00 02:24:52
FILE "07 - I'll Never Fail You.wav" WAVE
INDEX 01 00:00:00
TRACK 08 AUDIO
TITLE "Why Don't I Get Wise To Myself"
PERFORMER "Andy Kirk"
INDEX 00 02:52:57
FILE "08 - Why Don't I Get Wise To Myself.wav" WAVE
INDEX 01 00:00:00
TRACK 09 AUDIO
TITLE "I'm Getting Nowhere With You"
PERFORMER "Andy Kirk"
INDEX 00 02:40:50
FILE "09 - I'm Getting Nowhere With You.wav" WAVE
INDEX 01 00:00:00
TRACK 10 AUDIO
TITLE "I Don't Stand A Ghost Of A Chance With You"
PERFORMER "Andy Kirk"
INDEX 00 02:44:13
FILE "10 - I Don't Stand A Ghost Of A Chance With You.wav" WAVE
INDEX 01 00:00:00
TRACK 11 AUDIO
TITLE "Please Don't Talk About Me When I'm Gone"
PERFORMER "Andy Kirk"
INDEX 00 03:01:17
FILE "11 - Please Don't Talk About Me When I'm Gone.wav" WAVE
INDEX 01 00:00:00
TRACK 12 AUDIO
TITLE "Big Jim Blues"
PERFORMER "Andy Kirk"
INDEX 00 02:49:55
FILE "12 - Big Jim Blues.wav" WAVE
INDEX 01 00:00:00
TRACK 13 AUDIO
TITLE "Wham (Re-Bop-Boom-Bam!)"
PERFORMER "Andy Kirk"
INDEX 00 02:54:12
FILE "13 - Wham (Re-Bop-Boom-Bam!).wav" WAVE
INDEX 01 00:00:00
TRACK 14 AUDIO
TITLE "Love Is The Thing"
PERFORMER "Andy Kirk"
INDEX 00 03:03:05
FILE "14 - Love Is The Thing.wav" WAVE
INDEX 01 00:00:00
TRACK 15 AUDIO
TITLE "Why Go On Pretending"
PERFORMER "Andy Kirk"
INDEX 00 02:55:43
FILE "15 - Why Go On Pretending.wav" WAVE
INDEX 01 00:00:00
TRACK 16 AUDIO
TITLE "It Always Will Be You"
PERFORMER "Andy Kirk"
INDEX 00 02:55:10
FILE "16 - It Always Will Be You.wav" WAVE
INDEX 01 00:00:00
TRACK 17 AUDIO
TITLE "Fine And Mellow"
PERFORMER "Andy Kirk"
INDEX 00 03:14:25
FILE "17 - Fine And Mellow.wav" WAVE
INDEX 01 00:00:00
TRACK 18 AUDIO
TITLE "Scratchin' In The Gravel"
PERFORMER "Andy Kirk"
INDEX 00 03:00:45
FILE "18 - Scratchin' In The Gravel.wav" WAVE
INDEX 01 00:00:00
TRACK 19 AUDIO
TITLE "Fifteen Minute Intermission"
PERFORMER "Andy Kirk"
INDEX 00 03:08:45
FILE "19 - Fifteen Minute Intermission.wav" WAVE
INDEX 01 00:00:00
TRACK 20 AUDIO
TITLE "Take Those Blues Away"
PERFORMER "Andy Kirk"
INDEX 00 03:04:15
FILE "20 - Take Those Blues Away.wav" WAVE
INDEX 01 00:00:00
TRACK 21 AUDIO
TITLE "Now I Lay Me Down To Dream"
PERFORMER "Andy Kirk"
INDEX 00 02:48:70
FILE "21 - Now I Lay Me Down To Dream.wav" WAVE
INDEX 01 00:00:00
TRACK 22 AUDIO
TITLE "There Is No Greater Love"
PERFORMER "Andy Kirk"
INDEX 00 02:52:33
FILE "22 - There Is No Greater Love.wav" WAVE
INDEX 01 00:00:00
Download / Скачать

Хотите скачать бесплатно? Зарегистрируйтесь на сайте (ссылка на регистрацию). Pirat.ca - самый быстрый торрент трекер в рунете!

Как скачивать  ·   Что такое торрент  ·   Рейтинг и ограничения

Пост 21-Мар-2018 20:14 (спустя 16 часов)

Топик был перенесен из форума Jazz & Blues & Country (Трюм) в форум Jazz & Blues & Country
sergej644
 

alexx2201

34

Пост 24-Мар-2018 22:50 (спустя 3 дня)

[Q] 

уважаемый дядя Вова не могу скачать ваш торрент

_________________
Одним ветром дышим, Пираты!
[Профиль]  [ЛС] 
Показать сообщения:    
Ответить на тему

Текущее время: Сегодня 18:39

Часовой пояс: GMT + 4



Вы не можете начинать темы
Вы не можете отвечать на сообщения
Вы не можете редактировать свои сообщения
Вы не можете удалять свои сообщения
Вы не можете голосовать в опросах
Вы не можете прикреплять файлы к сообщениям
Вы не можете скачивать файлы

Майнать ▼