Ёлки новые (Жора Крыжовников, Дмитрий Киселёв, Александр Карпиловский) [2017 г., комедия, мелодрама, WEB-DLRip] Original (RUS)

Ответить на тему
 
Автор
Сообщение

Пост 22-Янв-2018 13:42

[Q] 

aleksey99

--Ёлки новые--«Нашли, с кем праздновать!»-- Производство: Россия
Год выпуска: 2017 г.
Жанр: комедия, мелодрама
Продолжительность: 01:25:40--Российская премьера: 21 декабря 2017, «Bazelevs Distribution»--Режиссер: Жора Крыжовников, Дмитрий Киселёв, Александр Карпиловский--В ролях: Иван Ургант, Сергей Светлаков, Дмитрий Нагиев, Юлия Александрова, Антон Богданов, Валентина Мазунина, Елена Яковлева, Сергей Пускепалис, Екатерина Климова, Андрей Бурковский--Описание: В декабре 2017 будет жарко! Дружба Жени и Бори едва не сгорит в огне семейного скандала; глубоко беременная Снегурочка отправится в Одиссею по нижегородским семьям; отчаянная Галя из Новосибирска пойдет на все, чтобы провести ночь с любимым врачом; экстремальный поход в лес за елкой станет проверкой на прочность для юного хипстера из Тюмени и его потенциального отчима. Новые и хорошо знакомые герои «Ёлок» влюбляются, ссорятся и мирятся, совершают геройские поступки и попадают впросак, лишь бы найти на Новый год настоящую родственную душу, как один смелый мальчик из Хабаровска, сбежавший в поисках новой мамы в Москву. И помочь им может только чудо… или вся страна!-- --Качество видео: WEB-DLRip
Контейнер: AVI
Видео кодек: XviD
Аудио кодек: AC3
Видео: 720x304 (2.37:1), 24 fps, XviD build 50 ~1891 kbps avg, 0.36 bit/pixel
Аудио: 48 kHz, AC3 Dolby Digital, 2/0 (L,R) ch, ~384 kbps
Cубтитры: отсутствуют
Общее
Полное имя : H:\Torrent2\J10Lk1.H0By3.2017.O.WEB-DLRip.1400MB.avi
Формат : AVI
Формат/Информация : Audio Video Interleave
Размер файла : 1,37 Гбайт
Продолжительность : 1 ч. 25 м.
Общий поток : 2285 Кбит/сек
Название фильма : J10Lk1.H0By3.2017.O.WEB-DLRip.1400MB
Программа кодирования : VirtualDubMod 1.5.10.2 (build 2540/release)
Формат оригинала/Имя : Movie
Видео
Идентификатор : 0
Формат : MPEG-4 Visual
Профиль формата : Advanced [email protected]
Настройки формата : BVOP2
Параметр BVOP формата : 2
Параметр QPel формата : Нет
Параметр GMC формата : Без точки перехода
Параметр матрицы формата : Default (MPEG)
Идентификатор кодека : XVID
Идентификатор кодека/Подсказка : XviD
Продолжительность : 1 ч. 25 м.
Битрейт : 1892 Кбит/сек
Ширина : 720 пикселей
Высота : 304 пикселя
Соотношение сторон : 2,35:1
Частота кадров : 24,000 кадра/сек
Цветовое пространство : YUV
Субдискретизация насыщенности : 4:2:0
Битовая глубина : 8 бит
Тип развёртки : Прогрессивная
Метод сжатия : С потерями
Бит/(Пиксели*Кадры) : 0.360
Размер потока : 1,13 Гбайт (83%)
Библиотека кодирования : XviD 1.2.1 (UTC 2008-12-04)
Аудио
Идентификатор : 1
Формат : AC-3
Формат/Информация : Audio Coding 3
Идентификатор кодека : 2000
Продолжительность : 1 ч. 25 м.
Вид битрейта : Постоянный
Битрейт : 384 Кбит/сек
Каналы : 2 канала
Расположение каналов : Front: L R
Частота : 48,0 КГц
Частота кадров : 31,250 кадров/сек (1536 SPF)
Битовая глубина : 16 бит
Метод сжатия : С потерями
Задержка видео : 96 мс.
Размер потока : 235 Мбайт (17%)
Выравнивание : Разделение по промежуткам
Продолжительность промежутка : 42 мс. (1,00 видеокадр)
Время предзагрузки промежутка : 500 мс.
ServiceKind/String : Complete Main
Трейлер
Download / Скачать

Хотите скачать бесплатно? Зарегистрируйтесь на сайте (ссылка на регистрацию). Pirat.ca - самый быстрый торрент трекер в рунете!

Как скачивать  ·   Что такое торрент  ·   Рейтинг и ограничения

clark

Флибустьер

Пост 22-Янв-2018 15:07 (спустя 1 час 24 минуты)

[Q] 

спасибо!!! !COOL!

_________________
Последним смеётся тот, кто стреляет первым.
[Профиль]  [ЛС] 

ss80

Гроза морей

36

Пост 23-Янв-2018 21:24 (спустя 1 день 6 часов)

[Q] 

Спасибо!!!
[Профиль]  [ЛС] 

black63

Шкипер

Пост 26-Янв-2018 20:44 (спустя 2 дня 23 часа)

[Q] 

Таки Свеженько смотриться не смотря на то что уже 6 часть
[Профиль]  [ЛС] 

lexaspirit

Пост 25-Мар-2018 11:51 (спустя 1 месяц 29 дней)

[Q] 

нормальный фильм. один раз глянуть можно

_________________
-------------------- ----------------------
[Профиль]  [ЛС] 

_8165

Корсар

Пост 21-Апр-2018 20:36 (спустя 27 дней)

[Q] 

Спасибо, Супер! !COOL!
[Профиль]  [ЛС] 
Показать сообщения:    
Ответить на тему

Текущее время: Сегодня 06:34

Часовой пояс: GMT + 4



Вы не можете начинать темы
Вы не можете отвечать на сообщения
Вы не можете редактировать свои сообщения
Вы не можете удалять свои сообщения
Вы не можете голосовать в опросах
Вы не можете прикреплять файлы к сообщениям
Вы не можете скачивать файлы

Майнать ▼