Русалочка 3D / The Little Mermaid 3D (Рон Клементс, Джон Маскер / Ron Clements, John Musker) [1989 г., мультфильм, BDRip 1080p, Вертикальная анаморфная стереопара / Half OverUnder] Dub + DVO [П. Гланц, И. Королёва] + AVO [А. Михалев, А. Гаврилов]

Ответить на тему
 
Автор
Сообщение

Пост 18-Янв-2014 01:10

[Q] 

erchine

Русалочка 3D / The Little Mermaid 3D Год выпуска: 1989
Жанр: Мультфильм, мюзикл, мелодрама, семейный
Выпущено: США, Silver Screen Partners IV, Walt Disney Pictures
Продолжительность: 01:22:49
Перевод: Профессиональный (полное дублирование)
Перевод 2: Профессиональный (двухголосый закадровый) П. Гланц, И. Королёва
Перевод 3, 4: Авторский (одноголосый закадровый) А. Михалев, А.Гаврилов
Оригинальный аудиопоток: английский
Режиссер: Рон Клементс, Джон Маскер / Ron Clements, John Musker
В ролях: Джоди Бенсон, Пэт Кэрролл, Рене Обержонуа, Кристофер Дэниэл Барнс, Пэдди Эдвардс, Бадди Хэкетт, Джейсон Марин, Кеннет Марс, Эди МакКлёрг, Уилл Райан, Бен Райт, Сэмюэл Э. Райт
Описание: Таинственные глубины моря хранят немало тайн, а обитатели океана могут рассказать множество удивительных историй. И самой невероятной из них была и остаётся история русалочки Ариэль. Дочь могущественного царя подводного мира Тритона, она однажды влюбляется в прекрасного и мужественного принца. Но разве они могут быть вместе — земной человек и морская дева? Однако настоящие чувства преодолевают любые преграды. Ради своей любви Ариэль готова пойти на всё. Даже если для обретения своего счастья ей навсегда придётся покинуть родной океан и навеки стать земной девушкой…
КиноПоиск / IMDB / Сэмпл
Качество: BDRip (1080p) Ash61
Контейнер: MKV
Формат 3D: Вертикальная анаморфная стереопара / Half OverUnder
Видео кодек: H.264
Аудио кодек: AC3
Видео: MPEG-4 AVC, 15.9 Мбит/с, 1920x1080, 23.976 кадр/с
Аудио:
#1 - Русский / AC3 / 48 KHz / 5.1 ch / 640 Kbps (Дублированный - BD CEE)
#2 - Русский / AC3 / 48 KHz / 5.1 ch / 640 Kbps (DVO - П. Гланц, И. Королёва)
#3 - Русский / AC3 / 48 KHz / 5.1 ch / 640 Kbps (AVO - А. Михалёв)
#4 - Русский / AC3 / 48 KHz / 2.0 ch / 192 Kbps (AVO - А. Гаврилов)
#5 - Английский / AC3 / 48 KHz / 5.1 ch / 640 Kbps (Original)
Субтитры: (SRT)
Внешние (UTF-8):
#1 - Русские Форсированные (включены по умолчанию)(три надписи)
#2 - Русские Песни
#3 - Русские Полные
#4 - Украинские Форсированные (три надписи)
#5 - Украинские Полные (edit by Ash61)
#6 - English Songs
#7 - English Full
#8 - English SDH
Вшитые (softsub):
#1 - Русские Форсированные (включены по умолчанию)
#2 - Украинские Форсированные
Общее
Уникальный идентификатор : 189371423871369789406726588444582770953 (0x8E779C0DBB06B5BCB0C5DE35FDFA7909)
Полное имя : G:\TheLittleMermaid(1989[2013])3D-halfOU(Ash61)\TheLittleMermaid(1989[2013])3D-halfOU(Ash61).mkv
Формат : Matroska
Версия формата : Version 2
Размер файла : 11,0 Гбайт
Продолжительность : 1 ч. 22 м.
Общий поток : 19,0 Мбит/сек
Название фильма : Русалочка / The Little Mermaid (1989) 3D
Дата кодирования : UTC 2013-09-17 13:40:41
Программа кодирования : mkvmerge v5.8.0 ('No Sleep / Pillow') built on Sep 2 2012 15:37:04
Библиотека кодирования : libebml v1.2.3 + libmatroska v1.3.0
Видео
Идентификатор : 1
Формат : AVC
Формат/Информация : Advanced Video Codec
Профиль формата : [email protected]
Параметр CABAC формата : Да
Параметр ReFrames формата : 4 кадра
Идентификатор кодека : V_MPEG4/ISO/AVC
Продолжительность : 1 ч. 22 м.
Битрейт : 15,9 Мбит/сек
Ширина : 1920 пикселей
Высота : 1080 пикселей
Соотношение сторон : 16:9
Режим частоты кадров : Постоянный
Частота кадров : 23,976 кадра/сек
Цветовое пространство : YUV
Субдискретизация насыщенности : 4:2:0
Битовая глубина : 8 бит
Тип развёртки : Прогрессивная
Бит/(Пиксели*Кадры) : 0.320
Размер потока : 9,20 Гбайт (84%)
Заголовок : BDRip by Ash61
Библиотека кодирования : x264 core 129 r2245 bc13772
Настройки программы : cabac=1 / ref=4 / deblock=1:-3:-3 / analyse=0x3:0x113 / me=umh / subme=10 / psy=1 / psy_rd=1.00:0.15 / mixed_ref=1 / me_range=32 / chroma_me=1 / trellis=2 / 8x8dct=1 / cqm=0 / deadzone=21,11 / fast_pskip=1 / chroma_qp_offset=-3 / threads=12 / lookahead_threads=2 / sliced_threads=0 / nr=0 / decimate=1 / interlaced=0 / bluray_compat=0 / constrained_intra=0 / bframes=8 / b_pyramid=2 / b_adapt=2 / b_bias=0 / direct=3 / weightb=1 / open_gop=0 / weightp=2 / keyint=250 / keyint_min=23 / scenecut=40 / intra_refresh=0 / rc_lookahead=60 / rc=crf / mbtree=1 / crf=17.0 / qcomp=0.70 / qpmin=0 / qpmax=69 / qpstep=4 / vbv_maxrate=40000 / vbv_bufsize=30000 / crf_max=0.0 / nal_hrd=none / frame-packing=4 / ip_ratio=1.40 / aq=1:0.70
Язык : English
Default : Да
Forced : Нет
Аудио #1
Идентификатор : 2
Формат : AC-3
Формат/Информация : Audio Coding 3
Расширение режима : CM (complete main)
Параметр Endianness формата : Big
Идентификатор кодека : A_AC3
Продолжительность : 1 ч. 22 м.
Вид битрейта : Постоянный
Битрейт : 640 Кбит/сек
Каналы : 6 каналов
Расположение каналов : Front: L C R, Side: L R, LFE
Частота : 48,0 КГц
Битовая глубина : 16 бит
Метод сжатия : С потерями
Размер потока : 379 Мбайт (3%)
Заголовок : Дубляж - BD CEE
Язык : Russian
Default : Да
Forced : Нет
Аудио #2
Идентификатор : 3
Формат : AC-3
Формат/Информация : Audio Coding 3
Расширение режима : CM (complete main)
Параметр Endianness формата : Big
Идентификатор кодека : A_AC3
Продолжительность : 1 ч. 22 м.
Вид битрейта : Постоянный
Битрейт : 640 Кбит/сек
Каналы : 6 каналов
Расположение каналов : Front: L C R, Side: L R, LFE
Частота : 48,0 КГц
Битовая глубина : 16 бит
Метод сжатия : С потерями
Размер потока : 379 Мбайт (3%)
Заголовок : Двухголосый закадровый - П. Гланц, И. Королёва
Язык : Russian
Default : Нет
Forced : Нет
Аудио #3
Идентификатор : 4
Формат : AC-3
Формат/Информация : Audio Coding 3
Расширение режима : CM (complete main)
Параметр Endianness формата : Big
Идентификатор кодека : A_AC3
Продолжительность : 1 ч. 22 м.
Вид битрейта : Постоянный
Битрейт : 640 Кбит/сек
Каналы : 6 каналов
Расположение каналов : Front: L C R, Side: L R, LFE
Частота : 48,0 КГц
Битовая глубина : 16 бит
Метод сжатия : С потерями
Размер потока : 379 Мбайт (3%)
Заголовок : Одноголосый закадровый - А. Михалёв
Язык : Russian
Default : Нет
Forced : Нет
Аудио #4
Идентификатор : 5
Формат : AC-3
Формат/Информация : Audio Coding 3
Расширение режима : CM (complete main)
Параметр Endianness формата : Big
Идентификатор кодека : A_AC3
Продолжительность : 1 ч. 22 м.
Вид битрейта : Постоянный
Битрейт : 192 Кбит/сек
Каналы : 2 канала
Расположение каналов : Front: L R
Частота : 48,0 КГц
Битовая глубина : 16 бит
Метод сжатия : С потерями
Размер потока : 114 Мбайт (1%)
Заголовок : Одноголосый закадровый - А. Гаврилов
Язык : Russian
Default : Нет
Forced : Нет
Аудио #5
Идентификатор : 6
Формат : AC-3
Формат/Информация : Audio Coding 3
Расширение режима : CM (complete main)
Параметр Endianness формата : Big
Идентификатор кодека : A_AC3
Продолжительность : 1 ч. 22 м.
Вид битрейта : Постоянный
Битрейт : 640 Кбит/сек
Каналы : 6 каналов
Расположение каналов : Front: L C R, Side: L R, LFE
Частота : 48,0 КГц
Битовая глубина : 16 бит
Метод сжатия : С потерями
Размер потока : 379 Мбайт (3%)
Заголовок : Original
Язык : English
Default : Нет
Forced : Нет
Текст #1
Идентификатор : 7
Формат : UTF-8
Идентификатор кодека : S_TEXT/UTF8
Идентификатор кодека/Информация : UTF-8 Plain Text
Заголовок : Форсированные
Язык : Russian
Default : Да
Forced : Нет
Текст #2
Идентификатор : 8
Формат : UTF-8
Идентификатор кодека : S_TEXT/UTF8
Идентификатор кодека/Информация : UTF-8 Plain Text
Заголовок : Форсированные
Язык : Ukrainian
Default : Нет
Forced : Нет
Меню
00:00:00.000 : :1
00:02:17.846 : :2
00:03:47.185 : :3
00:05:51.643 : :4
00:08:56.035 : :5
00:10:48.982 : :6
00:15:01.359 : :7
00:19:04.685 : :8
00:22:18.462 : :9
00:25:15.723 : :10
00:29:06.244 : :11
00:32:56.057 : :12
00:34:21.476 : :13
00:38:49.160 : :14
00:40:00.690 : :15
00:41:38.413 : :16
00:45:42.615 : :17
00:50:57.054 : :18
00:52:22.556 : :19
00:57:21.772 : :20
00:59:35.947 : :21
01:02:29.204 : :22
01:05:45.650 : :23
01:10:04.742 : :24
01:12:48.739 : :25
01:15:33.154 : :26
01:18:19.403 : :27
Download / Скачать

Хотите скачать бесплатно? Зарегистрируйтесь на сайте (ссылка на регистрацию). Pirat.ca - самый быстрый торрент трекер в рунете!

Как скачивать  ·   Что такое торрент  ·   Рейтинг и ограничения

vladisla

Корсар

4

Пост 30-Мар-2018 13:40 (спустя 4 года 2 месяца)

[Q] 

Спасибо за фильм и за Гаврилова!
[Профиль]  [ЛС] 
Показать сообщения:    
Ответить на тему

Текущее время: Сегодня 20:44

Часовой пояс: GMT + 4



Вы не можете начинать темы
Вы не можете отвечать на сообщения
Вы не можете редактировать свои сообщения
Вы не можете удалять свои сообщения
Вы не можете голосовать в опросах
Вы не можете прикреплять файлы к сообщениям
Вы не можете скачивать файлы

Майнать ▼