Уважаемый Гость!
Вы можете поддержать проект и зарегистрироваться у наших партнеров - онлайн-стратегия MyLands. При регистрации в игре Вы получите код, который сможете активировать после регистрации на pirat.ca и получить 1000 дублонов.

Ваш код:
3a771c5d71ef5300c8aeb8017d748943d9a3a70e
 
     

Матильда (Алексей Учитель / Aleksey Uchitel) [2017 г., драма, история, триллер, WEB-DLRip] [iTunes]

Ответить на тему
 
Автор
Сообщение

Пост 07-Дек-2017 19:18

[Q] 

ara1205

-Матильда-- Производство: Россия
Год выпуска: 2017 г.
Жанр: драма, история, триллер
Продолжительность: 01:48:37
Мировая премьера: 8 октября 2017
Российская премьера: 26 октября 2017-Режиссёр: Алексей Учитель / Aleksey Uchitel-В ролях: Михалина Ольшанска, Ларс Айдингер, Данила Козловский, Луизе Вольфрам, Ингеборга Дапкунайте, Сергей Гармаш, Евгений Миронов, Григорий Добрыгин, Галина Тюнина, Виталий Коваленко, Виталий Кищенко, Томас Остермайер, Сара Штерн, Гэ Ян, Сергей Малюгов, Степан Пивкин, Константин Желдин, Роман Шаляпин-Описание: Последний русский император и балерина, утвердившая славу русского балета. Страсть, которая могла изменить русскую историю. Любовь, ставшая легендой. В жизни каждого человека случаются несколько дней, которые могут изменить её навсегда. Когда происходит самое главное. Ты оборачиваешься на голос любви. И делаешь выбор. Но если властитель империи полюбит танцовщицу, сводящую с ума своей красотой… Успенский собор, Кремль, Ходынское поле, царские дворцы, сцены Мариинского и Большого театров — там, где бьется сердце вечной России.- -Качество видео: WEB-DLRip
Контейнер: AVI
Видео кодек: XviD
Аудио кодек: AC3
Видео: 720х304, 23,976 fps, 1532 Kbps, 0.292 bits/pixel
Аудио: 48 kHz, AC3 Dolby Digital, 6 ch, 384 Kbps
Cубтитры: отсутствуют-
Общее
Полное имя : C:\Users\Admin\Pictures\Матильда\Matilda.2017.WEB-DLRip.[pirat.ca].avi
Формат : AVI
Формат/Информация : Audio Video Interleave
Размер файла : 1,46 Гбайт
Продолжительность : 1 ч. 48 м.
Общий поток : 1925 Кбит/сек
Программа кодирования : VirtualDubMod 1.5.10.2 (build 2540/release)
Библиотека кодирования : VirtualDubMod build 2540/release
Видео
Идентификатор : 0
Формат : MPEG-4 Visual
Профиль формата : Advanced [email protected]
Параметр BVOP формата : 1
Параметр QPel формата : Нет
Параметр GMC формата : Без точки перехода
Параметр матрицы формата : Выборочная
Идентификатор кодека : XVID
Идентификатор кодека/Подсказка : XviD
Продолжительность : 1 ч. 48 м.
Битрейт : 1532 Кбит/сек
Ширина : 720 пикселей
Высота : 304 пикселя
Соотношение сторон : 2,35:1
Частота кадров : 23,976 кадра/сек
Цветовое пространство : YUV
Субдискретизация насыщенности : 4:2:0
Битовая глубина : 8 бит
Тип развёртки : Прогрессивная
Метод сжатия : С потерями
Бит/(Пиксели*Кадры) : 0.292
Размер потока : 1,16 Гбайт (80%)
Библиотека кодирования : XviD 73
Аудио
Идентификатор : 1
Формат : AC-3
Формат/Информация : Audio Coding 3
Расширение режима : CM (complete main)
Параметр Endianness формата : Big
Идентификатор кодека : 2000
Продолжительность : 1 ч. 48 м.
Вид битрейта : Постоянный
Битрейт : 384 Кбит/сек
Каналы : 6 каналов
Расположение каналов : Front: L C R, Side: L R, LFE
Частота : 48,0 КГц
Битовая глубина : 16 бит
Метод сжатия : С потерями
Размер потока : 298 Мбайт (20%)
Выравнивание : Разделение по промежуткам
Продолжительность промежутка : 42 мс. (1,00 видеокадр)
Время предзагрузки промежутка : 500 мс.
-
-
Download / Скачать

Хотите скачать бесплатно? Зарегистрируйтесь на сайте (ссылка на регистрацию). Pirat.ca - самый быстрый торрент трекер в рунете!

Как скачивать  ·   Что такое торрент  ·   Рейтинг и ограничения

bo4kov

Гроза морей

539

Пост 07-Дек-2017 21:02 (спустя 1 час 44 минуты)

[Q] 

Спасибо!!! Лови бочку

_________________
[Профиль]  [ЛС] 

жека.ру

Шкипер

90

Пост 07-Дек-2017 22:08 (спустя 1 час 6 минут)

[Q] 

Заценим Автору респект!!!
Добавлено спустя 6 минут 30 секунд:
Звук и картинка в норме Пиратка рулит!
[Профиль]  [ЛС] 

kinstintin

Гроза морей

Пост 07-Дек-2017 22:10 (спустя 1 минута)

[Q] 

Спасибо!!!
посмотрим из-за чего "война" в России идет ))
[Профиль]  [ЛС] 

petrs_2000

Лоцман

Пост 08-Дек-2017 03:39 (спустя 5 часов)

[Q] 

Спасибо за труды и отсутствие рекламы. От фильма ожидал большего. С середины всё как-то не логично. Конец вообще как будто за уши притянут. А НяшМяше стоит расслабиться)
[Профиль]  [ЛС] 

moscowpan

Гроза морей

4119

Пост 08-Дек-2017 09:32 (спустя 5 часов)

[Q] 

сколько ору было то, надо смотреть

_________________
[Профиль]  [ЛС] 

grosboy

Гроза морей

Пост 08-Дек-2017 10:54 (спустя 1 час 21 минута)

[Q] 

Фильм так себе. Пиара вокруг создали море, а сам фильм ни чем не выделился, кроме скандалов вокруг создания самого фильма.

_________________
Щастье есть - его не может не быть...
[Профиль]  [ЛС] 

жека.ру

Шкипер

90

Пост 08-Дек-2017 23:13 (спустя 12 часов)

[Q] 

Фильм про любовь, а политика не причем. На любителя
[Профиль]  [ЛС] 

ГИППАРРД

Корсар

2

Пост 13-Дек-2017 14:04 (спустя 4 дня)

[Q] 

Объемное мне все ругали этот фильм что в этом фильме не так??????
[Профиль]  [ЛС] 

italiano711

Гроза морей

42

Пост 13-Дек-2017 16:50 (спустя 2 часа 45 минут)

[Q] 

Один из способов пиара. Плохая реклама, тоже реклама.)
[Профиль]  [ЛС] 

Mustafa Sazont

Морской Волк

Пост 22-Дек-2017 12:37 (спустя 8 дней)

[Q] 

Рекламы много вокруг фильма, а сам фильм так себе,- посмотрел и забыл.
Уроженка села Уютное Сакского района зря только пиарила его на всю страну!
[Профиль]  [ЛС] 

Мания величия

Морской Волк

Пост 26-Дек-2017 22:05 (спустя 4 дня)

[Q] 

так и есть смотрится как документалистика с историей (на мой взгляд) хотя это все на любителя!

_________________
[Профиль]  [ЛС] 

vasdas

Корсар

Пост 28-Дек-2017 02:31 (спустя 1 день 4 часа)

[Q] 

Если бы не скандал вокруг фильма, не обратил бы внимания на этот шедевр, а так придётся смотреть Раздающему респект!
[Профиль]  [ЛС] 

VictorSor

Шкипер

Пост 29-Дек-2017 17:53 (спустя 1 день 15 часов)

[Q] 

Нормальное кино похоже скандал был для пиара . Кстати родной язык Николая был английский . (К тому времени к русским Романовы уже очень давно никакого отношения не имели за что и пострадали утратив чувство реальности).
[Профиль]  [ЛС] 

Hippopotam

Флибустьер

Пост 02-Янв-2018 02:05 (спустя 3 дня)

[Q] 

Картинка оченно красивая у кинофильмы, но как драматургическая сущность - фильма явно не выдающаяся. На один просмотр Спасибо!!!
[Профиль]  [ЛС] 

Пост 13-Янв-2018 10:38 (спустя 11 дней)

Топик был перенесен из форума Новинки (HD|DVD|BD| TV|SAT|PDTV| - Rips) в форум Российские фильмы
aleksey99
 

vasdas

Корсар

Пост 01-Апр-2018 04:40 (спустя 2 месяца 30 дней)

[Q] 

раза 3-4 начинал смотреть, сегодня наконец получилось досмотреть Мне понравилось шум вокруг - пида*гов-прокуроров, считаю совершенно не обоснованным, ещё понял не надо читать рецензии так называемых критиков, так как на вкус и цвет... Лови бочку
[Профиль]  [ЛС] 
Показать сообщения:    
Ответить на тему

Текущее время: Сегодня 23:06

Часовой пояс: GMT + 4



Вы не можете начинать темы
Вы не можете отвечать на сообщения
Вы не можете редактировать свои сообщения
Вы не можете удалять свои сообщения
Вы не можете голосовать в опросах
Вы не можете прикреплять файлы к сообщениям
Вы не можете скачивать файлы

▼ Вниз