Последняя Фантазия VII: Дети Пришествия Режиссерская версия / Final Fantasy: VII Advent Children Complete (Номура Тэцуя) [2009 г., приключения, экшн, боевые искусства, фэнтези][BDRip]

Ответить на тему
 
Автор
Сообщение

Пост 17-Фев-2012 02:52

[Q] 

Андря

Последняя Фантазия VII: Дети Пришествия / Final Fantasy VII: Advent Children ( Режиссерская версия )
Страна: Япония
Премьера: 20.04.2009
Жанр: приключения, экшн, боевые искусства, фэнтези
Продолжительность: 02:06:00
Перевод: Любительский(одноголосый) Lisek
Режиссёр: Тецуя Номура / Tetsuya Nomura, Такеши Нозуе / Takeshi Nozue
Описание: Действие фильма разворачиваеться спустя два года после событий игры "Final fantasy VII ". Планета стала довольно мирным местом, хотя города и вся индустрия полностью разрушены, а большая часть населения заражена синдромом "Звёзного шрама" или "Геостигмой" (Принято считать, что болезнь развивается в результате боя инородных веществ, проникших в плоть 2 года назад, с телом человека). Главный герой и экс-солдат по имени Клауд Страйф живёт один и чувствует вину за то, что совершил, спасая мир. Однако миру грозит новая напасть. Охваченный виной и присекаемый прошлым, решает жить мирной и отдалённой от всего мира жизнью. "Strife's Delivery Service" - фирма Клауда, расположенная в баре Тифы, занимается приютом детей, болеющих Геостигмой. Однажды Клауду звонит создатель Шинры - президент Руфус, и просит о защите его от загадочного человека по имени Кадай. В то же время Кадай и его братья Лоз и Язу розыскивают свою "мать", веря в то, что только Клауд знает где её найти.
Качество: BDRip
Формат: AVI
Видео кодек: XVID
Аудио кодек: МР3
Видео: XviD, 2073 Кбит/сек, 704х400, 16:9, 23,976 кадра/сек, 8 бит
Аудио: MPEG Audio Layer 3, 192 Кбит/сек, 2 канала, 48,0 КГц
Общее
Полное имя : Final_Fantasy_7_Advent_Children_Complete_[Lisek].avi
Формат : AVI
Формат/Информация : Audio Video Interleave
Профиль формата : OpenDML
Размер файла : 2,01 Гбайт
Продолжительность : 2 ч. 6 м.
Общий поток : 2277 Кбит/сек
Программа кодирования : VirtualDubMod 1.5.10.2 (build 2542/release)
Библиотека кодирования : VirtualDubMod build 2542/release
Видео
Идентификатор : 0
Формат : MPEG-4 Visual
Профиль формата : Advanced [email protected]
Параметр BVOP формата : 1
Параметр QPel формата : Нет
Параметр GMC формата : Без точки перехода
Параметр матрицы формата : Default (H.263)
Идентификатор кодека : XVID
Идентификатор кодека/Подсказка : XviD
Продолжительность : 2 ч. 6 м.
Битрейт : 2073 Кбит/сек
Ширина : 704 пикселя
Высота : 400 пикселей
Соотношение сторон : 16:9
Частота кадров : 23,976 кадра/сек
Цветовое пространство : YUV
Субдискретизация насыщенности : 4:2:0
Битовая глубина : 8 бит
Тип развёртки : Прогрессивная
Метод сжатия : С потерями
Бит/(Пиксели*Кадры) : 0.307
Размер потока : 1,83 Гбайт (91%)
Библиотека кодирования : XviD 1.2.1 (UTC 2008-12-04)
Аудио
Идентификатор : 1
Формат : MPEG Audio
Версия формата : Version 1
Профиль формата : Layer 3
Идентификатор кодека : 55
Идентификатор кодека/Подсказка : MP3
Продолжительность : 2 ч. 6 м.
Вид битрейта : Постоянный
Битрейт : 192 Кбит/сек
Каналы : 2 канала
Частота : 48,0 КГц
Метод сжатия : С потерями
Размер потока : 174 Мбайт (8%)
Выравнивание : Соединение по промежуткам
Продолжительность промежутка : 42 мс. (1,00 видеокадр)
Время предзагрузки промежутка : 504 мс.






Download / Скачать

Хотите скачать бесплатно? Зарегистрируйтесь на сайте (ссылка на регистрацию). Pirat.ca - самый быстрый торрент трекер в рунете!

Как скачивать  ·   Что такое торрент  ·   Рейтинг и ограничения

NINJA_MASTER

2110

Пост 15-Июл-2012 02:54 (спустя 4 месяца 27 дней)

[Q] 

Еще нужно переносить !!!!

_________________
Подпись отключена за нарушение правил форума
[Профиль]  [ЛС] 

Пост 15-Июл-2012 08:47 (спустя 5 часов)

Топик был перенесен из форума Зарубежные полнометражные мультфильмы в форум Основной раздел

ara1205
 

Wolf

59828

Пост 20-Июл-2012 12:18 (спустя 5 дней)

[Q] 

Помогу с рздачей
[Профиль]  [ЛС] 

Евгений Чередников

Морской Волк

Пост 13-Фев-2014 22:54 (спустя 1 год 6 месяцев)

[Q] 

Автору респект!!! Раздающему респект!

_________________
[Профиль]  [ЛС] 

darkroot

Шкипер

Пост 03-Май-2014 12:46 (спустя 2 месяца 17 дней)

[Q] 

спасибо) Качают ВСЕ!!!

_________________
[Профиль]  [ЛС] 

Antikvarnt

Штурман

26

Пост 03-Апр-2018 09:56 (спустя 3 года 10 месяцев)

[Q] 

anime91
не плохое аниме
[Профиль]  [ЛС] 
Показать сообщения:    
Ответить на тему

Текущее время: Сегодня 14:40

Часовой пояс: GMT + 4



Вы не можете начинать темы
Вы не можете отвечать на сообщения
Вы не можете редактировать свои сообщения
Вы не можете удалять свои сообщения
Вы не можете голосовать в опросах
Вы не можете прикреплять файлы к сообщениям
Вы не можете скачивать файлы

Майнать ▼