Уважаемый Гость!
Вы можете поддержать проект и зарегистрироваться у наших партнеров - онлайн-стратегия MyLands. При регистрации в игре Вы получите код, который сможете активировать после регистрации на pirat.ca и получить 1000 дублонов.

Ваш код:
b504cb9d6185c3af6de5b6409bbe29f2a270a19a
 
     

Волшебники / The Magicians / Сезон 3 / Серии: 1-13 из 13 (Крис Фишер / Chris Fisher) [2018г., фэнтези, драма, WEB-DLRip] MVO (LostFilm)

Ответить на тему
 
Автор
Сообщение

Пост 13-Янв-2018 22:10

[Q] 

kugesan

Волшебники / The Magicians- Страна: США
Год выпуска: 2018
Жанр: ужасы, фэнтези, драма, детектив, ...
Продолжительность: ~ 00:46:00 мин серия-Озвучка: Студия
Перевод: Многоголосый закадровый, профессиональный
Оригинальный аудиопоток: английский-Премьера (мир): 16 декабря 2015, ...-Режиссер: Крис Фишер / Chris Fisher, Джошуа Батлер / Joshua Butler, Джеймс Л. Конуэй / James L. Conway
В главных ролях: Джейсон Ральф (Квентин Колдуотер), Стелла Маив (Джулия Уикер), Оливия Тейлор Дадли (Элис Куин), Хейл Эйплмен (Элиот Во), Арджун Гупта (Пенни), Саммер Бишил (Марго Хэнсон)-Описание фильма:
В один прекрасный момент несколько молодых людей удивительным образом оказываются в университете магии Брэйкбиллз, находящемся в Нью-Йорке. Парни делают необычное открытие, вносящее кардинальные перемены в их жизнь: как оказалось, умопомрачительный мир, о котором они так часто читали в детские годы, действительно есть. Не говоря уже о том, что, у всех у них есть собственные волшебные возможности. Но скоро обнаруживается, что жители данной скрытой от постороннего взгляда местности представляют собой гигантскую опасность для всего населения Земли.
-Качество видео: WEB-DLRip
Формат: AVI
Видеокодек: XviD
Аудиокодек: Mp3
Видео: MPEG-4 Visual at ~ 1500 Кбит/сек: 720 x 400 (1.800) at 23.976 fps, 0.22 Бит/Пиксели
Аудио Rus: Mp3, 48,0 КГц, 2 ch, 192 kbps |LostFilm|
Cубтитры: Русские (форсированные)
- -
  • Сказание о семи ключах
  • Герои и придурки
  • Потери из-за магии
  • Стань Пенни
  • Жизнь за один день
  • А зубы тебе нравятся?
  • Яйца пашот
  • Шесть рассказов о волшебстве
  • Все это Джош
  • Искусство заключения сделки
  • Двадцать три
  • Кандидат от Филлори
  • Поиграешь со мной?
-
General
Complete name : M:\Сериалы\Волшебники\Волшебники (Сезон 3) LostFilm\The.Magicians.S03E01.WEB-DLRip.LostFilm.avi
Format : AVI
Format/Info : Audio Video Interleave
File size : 560 MiB
Duration : 46 min 11 s
Overall bit rate : 1 697 kb/s
Writing library : VirtualDub build 35576/release
Video
ID : 0
Format : MPEG-4 Visual
Format profile : Advanced [email protected]
Format settings : BVOP2
Format settings, BVOP : 2
Format settings, QPel : No
Format settings, GMC : No warppoints
Format settings, Matrix : Default (MPEG)
Codec ID : XVID
Codec ID/Hint : XviD
Duration : 46 min 11 s
Bit rate : 1 495 kb/s
Width : 720 pixels
Height : 400 pixels
Display aspect ratio : 16:9
Frame rate : 23.976 (24000/1001) FPS
Original frame rate : 23.976 (23976/1000) FPS
Color space : YUV
Chroma subsampling : 4:2:0
Bit depth : 8 bits
Scan type : Progressive
Compression mode : Lossy
Bits/(Pixel*Frame) : 0.217
Stream size : 494 MiB (88%)
Writing library : XviD 67
Audio
ID : 1
Format : MPEG Audio
Format version : Version 1
Format profile : Layer 3
Codec ID : 55
Codec ID/Hint : MP3
Duration : 46 min 11 s
Bit rate mode : Constant
Bit rate : 192 kb/s
Channel(s) : 2 channels
Sampling rate : 48.0 kHz
Compression mode : Lossy
Stream size : 63.4 MiB (11%)
Alignment : Aligned on interleaves
Interleave, duration : 42 ms (1.00 video frame)
Interleave, preload duratio : 504 ms
-
-Скриншоты:
-
Раздача ведётся путём добавления новых серий; при каждом добавлении создаётся новый торрент.
Чтобы начать докачку новой серии, пользователям необходимо сделать следующее:
1. остановить скачивание,
2. удалить старый торрент у себя из клиента (старые серии удалять не надо),
3. скачать новый торрент и запустить его у себя в клиенте вместо старого, при этом указать клиенту путь в старую папку, куда и должно происходить скачивание новых серий.
Ваш клиент при этом должен произвести хеширование (проверку) старой папки (если не производит сам - помогите ему сделать это), и будет докачивать только те серии которых у вас ещё нет. Старые серии при этом не удаляются, а продолжают раздаваться!
Eсли вы уже удалили старые серии, то предотвратить повторную закачку старых серий можно, отжав галочку в соответствующих местах при запуске нового торрента. По возможности, желательно не удалять старые серии как можно дольше, чтобы релизёр не столько продолжал раздавать старые серии, а смог сконцентрироваться на новых.
Совет для тех, кто не хочет ждать перехеширования:
Создайте ещё одну папку рядом с папкой сериала (рядом, а не в ней!!!). Каждую новую серию после удачной загрузки копируйте в новую папку так чтобы ваша основная папка всегда была пуста. Когда ваш новый торрент предложит вам закачать все файлы, выберете только последнюю. Для сидирования же укажите адрес новой папки.
Как закачать отдельный файл из торрента или докачать ранее пропущенные файлы торрента!
-
1. Открыть торрент
2. Снять галки с тех файлов торрента, которые мы не хотим закачивать. Оставляем только на нужных нам файлах (файле).
3. Нажать О.К.
В клиенте utorrent
Инструкция
1) Открыть торрент

2) Снять галки с тех файлов торрента, которые мы не хотим закачивать:
* либо вручную, снимая с каждого файла галку( скрин №1)
* либо, нажав кнопку "Снять метки (Select None)", сняв сразу со всех файлов(скрин №2)
№1

№2

Оставляем только на нужных нам файлах (файле).

3)Нажать О.К
-Приятного просмотра!!!-
Download / Скачать

Хотите скачать бесплатно? Зарегистрируйтесь на сайте (ссылка на регистрацию). Pirat.ca - самый быстрый торрент трекер в рунете!

Как скачивать  ·   Что такое торрент  ·   Рейтинг и ограничения



Последний раз редактировалось: kugesan (2018-04-11 16:55), всего редактировалось 13 раз(а)

kugesan ®

62410

Пост 30-Янв-2018 11:37 (спустя 16 дней)

[Q] 

Раздача обновлена полностью. Убрана английская дорожка.

_________________
В мире две бесконечности: вселенная и человеческая глупость - Альберт Эйнштен
«Можно вытащить человека из грязи, но нельзя вытащить грязь из человека»!
[Профиль]  [ЛС] 

zvezda_2s

Флибустьер

Пост 09-Фев-2018 11:46 (спустя 10 дней)

[Q] 

Поделитесь впечатлениями!
[Профиль]  [ЛС] 

Di VuLfi

Морской Волк

27

Пост 18-Фев-2018 20:50 (спустя 9 дней)

[Q] 

Спасибо! Сериал на любителя ! Лови бочку

_________________
"ничто не истенно и все дозволено"
[Профиль]  [ЛС] 

zvezda_2s

Флибустьер

Пост 19-Фев-2018 20:53 (спустя 1 день)

[Q] 

Посмотрел. Не очень...
[Профиль]  [ЛС] 

Outdrop

Шкипер

11

Пост 05-Апр-2018 21:29 (спустя 1 месяц 14 дней)

[Q] 

как по мне так сериал классный. Если первый сезон зашёл то остальные обязательно зайдут. На удивление тут от сезона к сезону все интереснее и интереснее. И лучше. И что прикольно в отличии от тех же Героев не запутались во всех этих параллельных реальностях. Хотя конечно и тут не без ляпов (правило "эффекта бабочки" просуществовало минут 15 одной из серий. И то второго сезона)

_________________
вторая формула
[Профиль]  [ЛС] 
Показать сообщения:    
Ответить на тему

Текущее время: Сегодня 04:12

Часовой пояс: GMT + 4



Вы не можете начинать темы
Вы не можете отвечать на сообщения
Вы не можете редактировать свои сообщения
Вы не можете удалять свои сообщения
Вы не можете голосовать в опросах
Вы не можете прикреплять файлы к сообщениям
Вы не можете скачивать файлы

▼ Вниз