(Rock, Russian-Rock, Art-Rock) Пикник - 35 - Лучшее и неизданное (2CD) - 2016 [FLAC, image +.cue, lossless]

Ответить на тему
 
Автор
Сообщение

Пост 10-Ноя-2016 21:29

[Q] 

sergej644

-Пикник - 35 - Лучшее и неизданное--
Год издания: 2016
Страна: Russia
Жанр: Rock, Russian-Rock, Art-Rock
Продолжительность: 02:02:58-Лейбл издания: ООО "Вектор"
Страна-выпуска диска: Russia
Номер по каталогу: VEK-CD-(58-59)-Формат: FLAC
Битрейт аудио: Lossless
Тип рипа: image +.cue
Наличие сканов в содержимом раздачи: да
-

01.Говорит и показывает(4:18)
02.Египтянин(5:11)
03.Королевство кривых(4:47)
04.Кукла с человеческим лицом(3:55)
05.Я - пущенная стрела(4:43)
06.Фиолетово-черный(4:11)
07.Твое сердце должно быть моим(4:15)
08.Из мышеловки(4:32)
09.Глаза очерчены углем(4:33)
10.Потерянный(3:56)
11.Декаданс(4:26)
12.Серебра!!!(4:23)
13.Чужестранец(3:54)
14.Большая игра(3:56)
15.Иероглиф(6:16)

01.Пикник - Четыре монеты (опера Оллипорт)(3:28)
02.Пикник - Степь да степь кругом(3:24)
03.Калинов мост и Эдмунд Шклярский - Фройлен, прощайте!(5:37)
04.Пикник и Хелависа - От Кореи до Карелии(5:04)
05.Пикник и Солнце-Хмари/ТаБу - Иероглиф(3:09)
06.Пикник и Дмитрий Ревякин - У шамана три руки(3:25)
07.Черный кузнец - Не кончается пытка(3:30)
08.Федор Чистяков - Песня эмигранта(5:22)
09.Инкогнито - А может быть и не было меня(3:37)
10.Алиса - Ночь(4:11)
11.Сонце-Хмари - Королевство кривых(3:36)
12.Пикник - Настоящие дни (remix Дмитрий «Ослик» Парфенов)(3:45)
13.Пикник - Шарманка (Bonus Track)(5:09)
14.Пикник - Романс (Bonus Track)(2:25)
-
Код:
Exact Audio Copy V1.3 from 2. September 2016
EAC extraction logfile from 7. November 2016, 19:30
Пикник / 35 - Лучшее (CD1)
Used drive  : ASUS    DRW-24B3LT   Adapter: 1  ID: 0
Read mode               : Secure
Utilize accurate stream : Yes
Defeat audio cache      : Yes
Make use of C2 pointers : No
Read offset correction                      : 6
Overread into Lead-In and Lead-Out          : No
Fill up missing offset samples with silence : Yes
Delete leading and trailing silent blocks   : No
Null samples used in CRC calculations       : Yes
Used interface                              : Native Win32 interface for Win NT & 2000
Used output format : Internal WAV Routines
Sample format      : 44.100 Hz; 16 Bit; Stereo
TOC of the extracted CD
     Track |   Start  |  Length  | Start sector | End sector
    ---------------------------------------------------------
        1  |  0:00.00 |  4:17.59 |         0    |    19333
        2  |  4:17.59 |  5:10.57 |     19334    |    42640
        3  |  9:28.41 |  4:46.67 |     42641    |    64157
        4  | 14:15.33 |  3:54.68 |     64158    |    81775
        5  | 18:10.26 |  4:43.27 |     81776    |   103027
        6  | 22:53.53 |  4:10.66 |    103028    |   121843
        7  | 27:04.44 |  4:15.01 |    121844    |   140969
        8  | 31:19.45 |  4:31.62 |    140970    |   161356
        9  | 35:51.32 |  4:33.03 |    161357    |   181834
       10  | 40:24.35 |  3:56.32 |    181835    |   199566
       11  | 44:20.67 |  4:25.67 |    199567    |   219508
       12  | 48:46.59 |  4:22.55 |    219509    |   239213
       13  | 53:09.39 |  3:54.26 |    239214    |   256789
       14  | 57:03.65 |  3:56.30 |    256790    |   274519
       15  | 61:00.20 |  6:16.16 |    274520    |   302735
Range status and errors
Selected range
     Filename D:\Osieron\My Documents\Desktop\Test&Copy\Пикник - 35 - Лучшее (CD1).wav
     Peak level 96.6 %
     Extraction speed 6.6 X
     Range quality 99.9 %
     Test CRC 38518670
     Copy CRC 38518670
     Copy OK
No errors occurred
AccurateRip summary
Track  1  not present in database
Track  2  not present in database
Track  3  not present in database
Track  4  not present in database
Track  5  not present in database
Track  6  not present in database
Track  7  not present in database
Track  8  not present in database
Track  9  not present in database
Track 10  not present in database
Track 11  not present in database
Track 12  not present in database
Track 13  not present in database
Track 14  not present in database
Track 15  not present in database
None of the tracks are present in the AccurateRip database
End of status report
Код:
Exact Audio Copy V1.3 from 2. September 2016
EAC extraction logfile from 7. November 2016, 20:19
Пикник / 35 - «Неизданное» (CD2)
Used drive  : ASUS    DRW-24B3LT   Adapter: 1  ID: 0
Read mode               : Secure
Utilize accurate stream : Yes
Defeat audio cache      : Yes
Make use of C2 pointers : No
Read offset correction                      : 6
Overread into Lead-In and Lead-Out          : No
Fill up missing offset samples with silence : Yes
Delete leading and trailing silent blocks   : No
Null samples used in CRC calculations       : Yes
Used interface                              : Native Win32 interface for Win NT & 2000
Used output format : Internal WAV Routines
Sample format      : 44.100 Hz; 16 Bit; Stereo
TOC of the extracted CD
     Track |   Start  |  Length  | Start sector | End sector
    ---------------------------------------------------------
        1  |  0:00.00 |  3:27.48 |         0    |    15572
        2  |  3:27.48 |  3:24.01 |     15573    |    30873
        3  |  6:51.49 |  5:37.14 |     30874    |    56162
        4  | 12:28.63 |  5:04.02 |     56163    |    78964
        5  | 17:32.65 |  3:08.63 |     78965    |    93127
        6  | 20:41.53 |  3:25.25 |     93128    |   108527
        7  | 24:07.03 |  3:29.54 |    108528    |   124256
        8  | 27:36.57 |  5:22.20 |    124257    |   148426
        9  | 32:59.02 |  3:36.47 |    148427    |   164673
       10  | 36:35.49 |  4:11.22 |    164674    |   183520
       11  | 40:46.71 |  3:35.72 |    183521    |   199717
       12  | 44:22.68 |  3:45.15 |    199718    |   216607
       13  | 48:08.08 |  5:08.71 |    216608    |   239778
       14  | 53:17.04 |  2:24.40 |    239779    |   250618
Range status and errors
Selected range
     Filename D:\Osieron\My Documents\Desktop\Test&Copy\Пикник - 35 - «Неизданное» (CD2).wav
     Peak level 99.0 %
     Extraction speed 3.3 X
     Range quality 99.9 %
     Test CRC A33E59FA
     Copy CRC A33E59FA
     Copy OK
No errors occurred
AccurateRip summary
Track  1  not present in database
Track  2  not present in database
Track  3  not present in database
Track  4  not present in database
Track  5  not present in database
Track  6  not present in database
Track  7  not present in database
Track  8  not present in database
Track  9  not present in database
Track 10  not present in database
Track 11  not present in database
Track 12  not present in database
Track 13  not present in database
Track 14  not present in database
None of the tracks are present in the AccurateRip database
End of status report
Код:
REM GENRE "Art Rock"
REM DATE 2016
REM DISCID DA0FC40F
REM COMMENT "ExactAudioCopy v1.3"
PERFORMER "Пикник"
TITLE "35 - «Лучшее» (CD1)"
FILE "Пикник - 35 - «Лучшее» (CD1).flac" WAVE
  TRACK 01 AUDIO
    TITLE "Говорит и показывает"
    INDEX 01 00:00:00
  TRACK 02 AUDIO
    TITLE "Египтянин"
    INDEX 01 04:17:59
  TRACK 03 AUDIO
    TITLE "Королевство кривых"
    INDEX 00 09:28:08
    INDEX 01 09:28:41
  TRACK 04 AUDIO
    TITLE "Кукла с человеческим лицом"
    INDEX 00 14:15:20
    INDEX 01 14:15:33
  TRACK 05 AUDIO
    TITLE "Я - пущенная стрела"
    INDEX 01 18:10:26
  TRACK 06 AUDIO
    TITLE "Фиолетово-черный"
    INDEX 01 22:53:53
  TRACK 07 AUDIO
    TITLE "Твое сердце должно быть моим"
    INDEX 00 27:03:32
    INDEX 01 27:04:44
  TRACK 08 AUDIO
    TITLE "Из мышеловки"
    INDEX 00 31:17:46
    INDEX 01 31:19:45
  TRACK 09 AUDIO
    TITLE "Глаза очерчены углем"
    INDEX 00 35:50:02
    INDEX 01 35:51:32
  TRACK 10 AUDIO
    TITLE "Потерянный"
    INDEX 00 40:23:62
    INDEX 01 40:24:35
  TRACK 11 AUDIO
    TITLE "Декаданс"
    INDEX 00 44:18:68
    INDEX 01 44:20:67
  TRACK 12 AUDIO
    TITLE "Серебра!!!"
    INDEX 00 48:44:60
    INDEX 01 48:46:59
  TRACK 13 AUDIO
    TITLE "Чужестранец"
    INDEX 00 53:07:40
    INDEX 01 53:09:39
  TRACK 14 AUDIO
    TITLE "Большая игра"
    INDEX 00 57:01:66
    INDEX 01 57:03:65
  TRACK 15 AUDIO
    TITLE "Иероглиф"
    INDEX 00 60:58:21
    INDEX 01 61:00:20
Код:
REM GENRE "Art Rock"
REM DATE 2016
REM DISCID CE0D0D0E
REM COMMENT "ExactAudioCopy v1.3"
PERFORMER "Пикник"
TITLE "35 - «Неизданное» (CD2)"
FILE "Пикник - 35 - «Неизданное» (CD2).flac" WAVE
  TRACK 01 AUDIO
    TITLE "Четыре монеты (опера Оллипорт)"
    PERFORMER "Пикник"
    INDEX 01 00:00:00
  TRACK 02 AUDIO
    TITLE "Степь да степь кругом"
    PERFORMER "Пикник"
    INDEX 00 03:25:49
    INDEX 01 03:27:48
  TRACK 03 AUDIO
    TITLE "Фройлен, прощайте!"
    PERFORMER "Калинов мост и Эдмунд Шклярский"
    INDEX 00 06:49:50
    INDEX 01 06:51:49
  TRACK 04 AUDIO
    TITLE "От Кореи до Карелии"
    PERFORMER "Пикник и Хелависа"
    INDEX 00 12:26:64
    INDEX 01 12:28:63
  TRACK 05 AUDIO
    TITLE "Иероглиф"
    PERFORMER "Пикник и Солнце-Хмари/ТаБу"
    INDEX 00 17:30:66
    INDEX 01 17:32:65
  TRACK 06 AUDIO
    TITLE "У шамана три руки"
    PERFORMER "Пикник и Дмитрий Ревякин"
    INDEX 00 20:39:54
    INDEX 01 20:41:53
  TRACK 07 AUDIO
    TITLE "Не кончается пытка"
    PERFORMER "Черный кузнец"
    INDEX 00 24:05:04
    INDEX 01 24:07:03
  TRACK 08 AUDIO
    TITLE "Песня эмигранта"
    PERFORMER "Федор Чистяков"
    INDEX 00 27:36:38
    INDEX 01 27:36:57
  TRACK 09 AUDIO
    TITLE "А может быть и не было меня"
    PERFORMER "Инкогнито"
    INDEX 00 32:58:25
    INDEX 01 32:59:02
  TRACK 10 AUDIO
    TITLE "Ночь"
    PERFORMER "Алиса"
    INDEX 01 36:35:49
  TRACK 11 AUDIO
    TITLE "Королевство кривых"
    PERFORMER "Сонце-Хмари"
    INDEX 00 40:44:72
    INDEX 01 40:46:71
  TRACK 12 AUDIO
    TITLE "Настоящие дни (remix Дмитрий «Ослик» Парфенов)"
    PERFORMER "Пикник"
    INDEX 00 44:21:22
    INDEX 01 44:22:68
  TRACK 13 AUDIO
    TITLE "Шарманка (Bonus Track)"
    PERFORMER "Пикник"
    INDEX 00 48:07:70
    INDEX 01 48:08:08
  TRACK 14 AUDIO
    TITLE "Романс (Bonus Track)"
    PERFORMER "Пикник"
    INDEX 00 53:15:05
    INDEX 01 53:17:04
Группа Пикник представляет подарочный двухдисковый бокс «35», выпуск которого приурочен к началу одноименного тура. И если первый диск этого издания является сборником лучших, проверенных временем хитов Эдмунда Шклярского, то второй диск необычен во всех смыслах этого слова! Итак, давайте рассмотрим, что именно найдет на этом диске взыскательный слушатель, являющийся преданным поклонником группы или незнакомый с ее творчеством.
Во-первых, это две песни, которые впервые прозвучат именно на этом диске в исполнении группы – русская народная песня «Степь да степь кругом» и авторская песня Эдмунда Шклярского – «Четыре монеты». Во-вторых, это прекрасные варианты совместного творчества – ПИКНИК и Дмитрий Ревякин в песне «У шамана три руки» и группа Калинов Мост с Эдмундом Шклярским в песне «Фройлен, прощайте!». Затем следует две песни Эдмунда, исполненные удивительными женскими голосами – да еще какими! Хелависа в песне «От Кореи до Карелии» и Татьяна Буланова в песне «Иероглиф».
Не менее интересно слушателям будет познакомиться с новым прочтением песен Пикника очень разными, и очень самобытными коллективами и исполнителями – группа Черный Кузнец разберется с песней «Не кончается пытка», Федор Чистяков исполнит «Песню эмигранта», группа Инкогнито - «А может быть и не было меня», группа Алиса - «Ночь», Сонце-Хмари поведает о «Королевстве кривых», а Дмитрий «Ослик» Парфенов представит ремикс на песню «Настоящие дни».
А на закуску ждут бонус-треки, песни в классическом исполнении самого Пикника – «Шарманка» и «Романс».
--
Download / Скачать

Хотите скачать бесплатно? Зарегистрируйтесь на сайте (ссылка на регистрацию). Pirat.ca - самый быстрый торрент трекер в рунете!

Как скачивать  ·   Что такое торрент  ·   Рейтинг и ограничения

activ1

Корсар

Пост 10-Ноя-2016 22:31 (спустя 1 час 2 минуты)

[Q] 

Спасибо!!!
Лови бочку
[Профиль]  [ЛС] 

SGSoft

Флибустьер

Пост 11-Ноя-2016 18:04 (спустя 19 часов)

[Q] 

Спасибо! Забираю! Надо слушать!
[Профиль]  [ЛС] 

BUKH

Лоцман

Пост 28-Дек-2016 16:16 (спустя 1 месяц 16 дней)

[Q] 

Спасибо!!! Послушаем Лови бочку
[Профиль]  [ЛС] 

usya5

Корсар

Пост 24-Дек-2017 08:11 (спустя 11 месяцев 26 дней)

[Q] 

Спасибо за раздачу, Всем качать!!! Супер!
[Профиль]  [ЛС] 

Hkg84

Корсар

Пост 06-Апр-2018 05:11 (спустя 3 месяца 12 дней)

[Q] 

Пикник - отличнаявещь.
[Профиль]  [ЛС] 
Показать сообщения:    
Ответить на тему

Текущее время: Сегодня 18:45

Часовой пояс: GMT + 4



Вы не можете начинать темы
Вы не можете отвечать на сообщения
Вы не можете редактировать свои сообщения
Вы не можете удалять свои сообщения
Вы не можете голосовать в опросах
Вы не можете прикреплять файлы к сообщениям
Вы не можете скачивать файлы

Майнать ▼