Одарённая / Gifted (Марк Уэбб / Marc Webb) [2017 г., драма, BDRip] Dub [Лицензия] + Sub (Rus)

Ответить на тему
 
Автор
Сообщение

Пост 26-Окт-2017 20:27

[Q] 

ara1205

-Одарённая / Gifted-- Производство: США
Год выпуска: 2017 г.
Жанр: драма
Продолжительность: 01:41:10
Перевод: Профессиональный (полное дублирование) [Лицензия]-Режиссёр: Марк Уэбб / Marc Webb-В ролях: Крис Эванс, МакКенна Грейс, Линдси Дункан, Дженни Слейт, Октавия Спенсер, Michael Kendall Kaplan, Джон М. Джексон, Гленн Пламмер, Джон Финн, Элизабет Марвел-Описание: Фрэнк Адлер живет в прибрежном городке во Флориде и воспитывает в одиночку свою необычайно одаренную племянницу Мэри. Но планы парня о спокойной школьной жизни для девочки рушатся, когда о математических способностях ребенка узнает грозная мать Фрэнка Эвелин. У бабушки свои представления о будущем внучки, и ради этого она готова даже разлучить Мэри с Фрэнком.- -Качество видео: BDRip
Контейнер: AVI
Видео кодек: XviD
Аудио кодек: AC3
Видео: 720х304, 23,976 fps, 1610 Kbps, 0.307 bits/pixel
Аудио: 48 kHz, AC3 Dolby Digital, 6 ch, 448 Kbps
Cубтитры: русские
Формат субтитров: softsub (SRT) Внешние-
Общее
Полное имя : C:\Users\Admin\Pictures\Одарённая\Odarennaya.2017.BDRip.[pirat.ca]\Odarennaya.2017.BDRip.[pirat.ca].avi
Формат : AVI
Формат/Информация : Audio Video Interleave
Размер файла : 1,46 Гбайт
Продолжительность : 1 ч. 41 м.
Общий поток : 2067 Кбит/сек
Программа кодирования : VirtualDubMod 1.5.10.2 (build 2540/release)
Библиотека кодирования : VirtualDubMod build 2540/release
Видео
Идентификатор : 0
Формат : MPEG-4 Visual
Профиль формата : Advanced [email protected]
Параметр BVOP формата : 1
Параметр QPel формата : Нет
Параметр GMC формата : Без точки перехода
Параметр матрицы формата : Выборочная
Идентификатор кодека : XVID
Идентификатор кодека/Подсказка : XviD
Продолжительность : 1 ч. 41 м.
Битрейт : 1610 Кбит/сек
Ширина : 720 пикселей
Высота : 304 пикселя
Соотношение сторон : 2,35:1
Частота кадров : 23,976 кадра/сек
Цветовое пространство : YUV
Субдискретизация насыщенности : 4:2:0
Битовая глубина : 8 бит
Тип развёртки : Прогрессивная
Метод сжатия : С потерями
Бит/(Пиксели*Кадры) : 0.307
Размер потока : 1,14 Гбайт (78%)
Библиотека кодирования : XviD 73
Аудио
Идентификатор : 1
Формат : AC-3
Формат/Информация : Audio Coding 3
Расширение режима : CM (complete main)
Параметр Endianness формата : Big
Идентификатор кодека : 2000
Продолжительность : 1 ч. 41 м.
Вид битрейта : Постоянный
Битрейт : 448 Кбит/сек
Каналы : 6 каналов
Расположение каналов : Front: L C R, Side: L R, LFE
Частота : 48,0 КГц
Битовая глубина : 16 бит
Метод сжатия : С потерями
Размер потока : 324 Мбайт (22%)
Выравнивание : Разделение по промежуткам
Продолжительность промежутка : 42 мс. (1,00 видеокадр)
Время предзагрузки промежутка : 500 мс.
-
-
Download / Скачать

Хотите скачать бесплатно? Зарегистрируйтесь на сайте (ссылка на регистрацию). Pirat.ca - самый быстрый торрент трекер в рунете!

Как скачивать  ·   Что такое торрент  ·   Рейтинг и ограничения

ara1205 ®

88714

Пост 26-Окт-2017 23:24 (спустя 2 часа 56 минут)

[Q] 

Отличный фильм. Не нудятина, как последнее время любят снимать драмы.
[Профиль]  [ЛС] 

Кристина119

Гроза морей

Пост 27-Окт-2017 12:08 (спустя 12 часов)

[Q] 

Америка отошел от дел...
[Профиль]  [ЛС] 

vasdas

Корсар

Пост 28-Окт-2017 04:20 (спустя 16 часов)

[Q] 

Спасибо, посмотрим Автору респект!!!
[Профиль]  [ЛС] 

Golsergio

Гроза морей

Пост 28-Окт-2017 17:37 (спустя 13 часов)

[Q] 

Фильм понравился. Спасибо!!! Лови бочку
[Профиль]  [ЛС] 

vasdas

Корсар

Пост 29-Окт-2017 07:22 (спустя 13 часов)

[Q] 

Понравилось, хорошее кино Раздающему респект!
[Профиль]  [ЛС] 

fishman

Флибустьер

Пост 29-Окт-2017 23:15 (спустя 15 часов)

[Q] 

Спасибо!!! rum

_________________
|___|___|___|___|___|___|___|__|__
__|__|__|_Биться головой_|___|___|
|___|___|___|__сюда!!___|___|__|__
__|___|___|___|___|___|___|__|__
[Профиль]  [ЛС] 

pan_tera

Корсар

Пост 30-Окт-2017 01:45 (спустя 2 часа 29 минут)

[Q] 

хорошего в последнее время мало.
[Профиль]  [ЛС] 

Мания величия

Морской Волк

Пост 30-Окт-2017 22:09 (спустя 20 часов)

[Q] 

РАЗДАВАН СПАСИБО огромное и всем кто на раздаче!

_________________
[Профиль]  [ЛС] 

Полтос

Гроза морей

Пост 12-Ноя-2017 23:06 (спустя 13 дней)

[Q] 

Отличное, доброе кино, рекомендуемое к семейному просмотру. Побольше бы таких...
Мне понравилось Автору респект!!!

_________________
Первый закон Прапорщика: Всё что поднимаемо - относительно!)
[Профиль]  [ЛС] 

ketzer

Корсар

Пост 15-Ноя-2017 02:44 (спустя 2 дня 3 часа)

[Q] 

Лёгкий, очень насыщенный положительными эмоциями фильм.
[Профиль]  [ЛС] 

shelby290

Флибустьер

Пост 10-Апр-2018 22:06 (спустя 4 месяца 25 дней)

[Q] 

Фильм отличный! Рекомендую к просмотру!
[Профиль]  [ЛС] 

TDK

Шкипер

Пост 12-Апр-2018 13:43 (спустя 1 день 15 часов)

[Q] 

Спасибо! Лови бочку
[Профиль]  [ЛС] 
Показать сообщения:    
Ответить на тему

Текущее время: Сегодня 16:39

Часовой пояс: GMT + 4



Вы не можете начинать темы
Вы не можете отвечать на сообщения
Вы не можете редактировать свои сообщения
Вы не можете удалять свои сообщения
Вы не можете голосовать в опросах
Вы не можете прикреплять файлы к сообщениям
Вы не можете скачивать файлы

Майнать ▼