Уважаемый Гость!
Вы можете поддержать проект и зарегистрироваться у наших партнеров - онлайн-стратегия MyLands. При регистрации в игре Вы получите код, который сможете активировать после регистрации на pirat.ca и получить 1000 дублонов.

Ваш код:
24a7071b82fb3c1d71d579c842b6c6c11e4f204e
 
     

Наш мультяшный президент / Our Cartoon President / Сезон: 1 / Серии: 1-4 из 10 (Стив Коннер / Steve Conner) [2018 г., мультфильм, комедия, WEB-DL, 720p] MVO (NewStudio) + Sub (Rus) (Обновляемая)

Ответить на тему
 
Автор
Сообщение

Пост 12-Апр-2018 15:04

[Q] 

AlexDjas

Корсар

--Наш мультяшный президент / Our Cartoon President-- Производство: США
Режиссёр: Стив Коннер/Steve Conner,Мак Уильямс/Mack Williams
Жанр: мультфильм, комедия
Год выпуска: 2018 г.
Продолжительность: ~00:27:00 1 серия
Мировая премьера: 11 февраля 2018
Перевод: Профессиональный (многоголосый, закадровый) [NewStudio]
Роли озвучивали: Джефф Бергман, Коуди Линдквист, Эмили Линн, Джон Винер, Джеймс Адомиан, Гэбриел Гандакер, Джеймс Монро Иглхарт, Kathryn Allison, Джим Сантанжели, Уильям Сэдлер--Описание: Анимационная «офисная» комедия, в которой кабинет начальника — овальный. Главные герои — президент США Дональд Трамп, его семья, министры, советники, главы других государств и прочие гости и обитатели Белого дома. Каждая серия — это типичный день из жизни самого скандального и неоднозначного президента в истории Штатов.--
Качество видео: WEB-DL
Контейнер: MKV
Стандарт разрешения: 720p
Видео кодек: MPEG4 AVC
Аудио кодек: AC3
Видео: H.264/AVC, 1280x720 (16:9), ~1 210 kb/s
Аудио: AC3, 2 ch, 224 kb/s - русский
Аудио #2: E-AC-3, 2 ch, 224 kb/s - английский
Cубтитры: русские
Общее
Уникальный идентификатор : 223922134846017813861763103034204235545 (0xA875D59FE5FEADB9FD13CC687F382719)
Полное имя : D:\торрент\Our Cartoon President[pirat.ca]\s01e04_Family Leave.mkv
Формат : Matroska
Версия формата : Version 4 / Version 2
Размер файла : 323 Мбайт
Продолжительность : 27 м. 18 с.
Режим общего битрейта : Переменный
Общий поток : 1652 Кбит/сек
Дата кодирования : UTC 2018-04-11 15:51:25
Программа кодирования : mkvmerge v22.0.0 ('At The End Of The World') 64-bit
Библиотека кодирования : libebml v1.3.5 + libmatroska v1.4.8
Видео
Идентификатор : 2
Формат : AVC
Формат/Информация : Advanced Video Codec
Профиль формата : [email protected]
Настройки формата : CABAC / 5 Ref Frames
Параметр CABAC формата : Да
Параметр RefFrames формата : 5 кадров
Идентификатор кодека : V_MPEG4/ISO/AVC
Продолжительность : 27 м. 18 с.
Вид битрейта : Переменный
Битрейт : 1042 Кбит/сек
Максимальный битрейт : 4500 Кбит/сек
Ширина : 1280 пикселей
Высота : 720 пикселей
Соотношение сторон : 16:9
Режим частоты кадров : Постоянный
Частота кадров : 23,976 (24000/1001) кадра/сек
Цветовое пространство : YUV
Субдискретизация насыщенности : 4:2:0
Битовая глубина : 8 бит
Тип развёртки : Прогрессивная
Бит/(Пиксели*Кадры) : 0.047
Размер потока : 204 Мбайт (63%)
Default : Да
Forced : Нет
Цветовой диапазон : Limited
Основные цвета : BT.709
Характеристики трансфера : BT.709
Коэффициенты матрицы : BT.709
Аудио #1
Идентификатор : 1
Формат : AC-3
Формат/Информация : Audio Coding 3
Идентификатор кодека : A_AC3
Продолжительность : 27 м. 18 с.
Вид битрейта : Постоянный
Битрейт : 384 Кбит/сек
Каналы : 2 канала
Расположение каналов : Front: L R
Частота : 48,0 КГц
Частота кадров : 31,250 кадров/сек (1536 SPF)
Битовая глубина : 16 бит
Метод сжатия : С потерями
Размер потока : 75,0 Мбайт (23%)
Язык : Russian
ServiceKind/String : Complete Main
Default : Да
Forced : Нет
Аудио #2
Идентификатор : 3
Формат : E-AC-3
Формат/Информация : Enhanced Audio Coding 3
Идентификатор кодека : A_EAC3
Продолжительность : 27 м. 18 с.
Вид битрейта : Постоянный
Битрейт : 224 Кбит/сек
Каналы : 2 канала
Расположение каналов : Front: L R
Частота : 48,0 КГц
Частота кадров : 187,500 кадров/сек (256 SPF)
Метод сжатия : С потерями
Размер потока : 43,7 Мбайт (14%)
Язык : English
ServiceKind/String : Complete Main
Default : Нет
Forced : Нет
Текст
Идентификатор : 4
Формат : UTF-8
Идентификатор кодека : S_TEXT/UTF8
Идентификатор кодека/Информация : UTF-8 Plain Text
Продолжительность : 24 м. 23 с.
Битрейт : 3 бит/сек
ElementCount : 11
Размер потока : 569 байт (0%)
Язык : Russian
Default : Да
Forced : Нет
1 серия - State of the Union/Послание Конгрессу
2 серия - Disaster Response/Ликвидация последствий
3 серия - Rolling Back Obama/Уничтожение наследия Обамы
4 серия - Family Leave/Семейный отпуск
Раздача ведётся путём добавления новых серий; при каждом добавлении создаётся новый торрент.
Чтобы начать докачку новой серии, пользователям необходимо сделать следующее:
1. остановить скачивание,
2. удалить старый торрент у себя из клиента (старые серии удалять не надо),
3. скачать новый торрент и запустить его у себя в клиенте вместо старого, при этом указать клиенту путь в старую папку, куда и должно происходить скачивание новых серий.
Ваш клиент при этом должен произвести хеширование (проверку) старой папки (если не производит сам - помогите ему сделать это), и будет докачивать только те серии которых у вас ещё нет. Старые серии при этом не удаляются, а продолжают раздаваться!
Eсли вы уже удалили старые серии, то предотвратить повторную закачку старых серий можно, отжав галочку в соответствующих местах при запуске нового торрента. По возможности, желательно не удалять старые серии как можно дольше, чтобы релизёр не столько продолжал раздавать старые серии, а смог сконцентрироваться на новых.
Совет для тех, кто не хочет ждать перехеширования:
Создайте ещё одну папку рядом с папкой сериала (рядом, а не в ней!!!). Каждую новую серию после удачной загрузки копируйте в новую папку так чтобы ваша основная папка всегда была пуста. Когда ваш новый торрент предложит вам закачать все файлы, выберете только последнюю. Для сидирования же укажите адрес новой папки.
Как закачать отдельный файл из торрента или докачать ранее пропущенные файлы торрента!
1. Открыть торрент
2. Снять галки с тех файлов торрента, которые мы не хотим закачивать. Оставляем только на нужных нам файлах (файле).
3. Нажать О.К.
В клиенте utorrent
Инструкция
1) Открыть торрент

2) Снять галки с тех файлов торрента, которые мы не хотим закачивать:
* либо вручную, снимая с каждого файла галку( скрин №1)
* либо, нажав кнопку "Снять метки (Select None)", сняв сразу со всех файлов(скрин №2)
№1

№2

Оставляем только на нужных нам файлах (файле).

3)Нажать О.К
Download / Скачать

Хотите скачать бесплатно? Зарегистрируйтесь на сайте (ссылка на регистрацию). Pirat.ca - самый быстрый торрент трекер в рунете!

Как скачивать  ·   Что такое торрент  ·   Рейтинг и ограничения

Показать сообщения:    
Ответить на тему

Текущее время: Сегодня 05:02

Часовой пояс: GMT + 4



Вы не можете начинать темы
Вы не можете отвечать на сообщения
Вы не можете редактировать свои сообщения
Вы не можете удалять свои сообщения
Вы не можете голосовать в опросах
Вы не можете прикреплять файлы к сообщениям
Вы не можете скачивать файлы

▼ Вниз