Уважаемый Гость!
Вы можете поддержать проект и зарегистрироваться у наших партнеров - онлайн-стратегия MyLands. При регистрации в игре Вы получите код, который сможете активировать после регистрации на pirat.ca и получить 1000 дублонов.

Ваш код:
b504cb9d6185c3af6de5b6409bbe29f2a270a19a
 
     

Мифы (Александр Молочников) [2017 г., комедия, WEB-DLRip] Original (RUS) [iTunes Russia]

Ответить на тему
 
Автор
Сообщение

Пост 14-Фев-2018 09:07

[Q] 

aleksey99

--Мифы-- Производство: Россия
Год выпуска: 2017 г.
Жанр: комедия
Продолжительность: 01:33:19--Мировая премьера: 16 ноября 2017
Российская премьера: 16 ноября 2017, «WDSSPR»
Цифровой релиз: 28 декабря 2017, «Sony Pictures Home Entertainment»--Режиссер: Александр Молочников--В ролях: Яннис Пападопулос, Фёдор Бондарчук, Сергей Безруков, Иван Ургант, Милош Бикович, Паулина Андреева, Ксения Раппопорт, Виктория Исакова, Максим Суханов, Андрей Смоляков--Описание: Последняя надежда русского кино, продюсер и режиссер Федор, торчит денег за музыкальный клип браткам из 90-х. Артист Сергей сыграл всех от Иисуса Христа до белочки. У Сергея кончились роли, он в депрессии, и не знает, как жить дальше. Телеведущий страны номер один, Иван, не может перестать шутить в обычной жизни. Девушка Ивана не понимает, почему он смешит ее за завтраком, в постели и даже на похоронах. Ничего не напоминает?
Нищий иностранец по чистой случайности попадает в самую гущу жизни богатых и знаменитых. Выясняется, что все наши представления о жизни звезд — мифы. На самом деле все гораздо хуже. Пытаясь помочь звездам решить их проблемы, наш герой влюбляется в жену Большого градоначальника и решает сделать все, чтобы похитить ее с Московского Олимпа.-- --Качество видео: WEB-DLRip
Контейнер: AVI
Видео кодек: XviD
Аудио кодек: AC3
Видео: 720x304 (2.37:1), 23.976 fps, XviD build 50 ~1703 kbps avg, 0.32 bit/pixel
Аудио: 48 kHz, AC3 Dolby Digital, 3/2 (L,C,R,l,r) + LFE ch, ~384 kbps
Cубтитры: отсутствуют
Общее
Полное имя : H:\Torrent2\M1f1.2O17.O.WeB-DLRip.14OOMB.avi
Формат : AVI
Формат/Информация : Audio Video Interleave
Размер файла : 1,37 Гбайт
Продолжительность : 1 ч. 33 м.
Общий поток : 2097 Кбит/сек
Название фильма : M1f1.2O17.O.WeB-DLRip.14OOMB
Программа кодирования : VirtualDubMod 1.5.10.2 (build 2540/release)
Формат оригинала/Имя : Movie
Видео
Идентификатор : 0
Формат : MPEG-4 Visual
Профиль формата : Advanced [email protected]
Настройки формата : BVOP2
Параметр BVOP формата : 2
Параметр QPel формата : Нет
Параметр GMC формата : Без точки перехода
Параметр матрицы формата : Default (MPEG)
Идентификатор кодека : XVID
Идентификатор кодека/Подсказка : XviD
Продолжительность : 1 ч. 33 м.
Битрейт : 1704 Кбит/сек
Ширина : 720 пикселей
Высота : 304 пикселя
Соотношение сторон : 2,35:1
Частота кадров : 23,976 (24000/1001) кадра/сек
Цветовое пространство : YUV
Субдискретизация насыщенности : 4:2:0
Битовая глубина : 8 бит
Тип развёртки : Прогрессивная
Метод сжатия : С потерями
Бит/(Пиксели*Кадры) : 0.325
Размер потока : 1,11 Гбайт (81%)
Библиотека кодирования : XviD 1.2.1 (UTC 2008-12-04)
Аудио
Идентификатор : 1
Формат : AC-3
Формат/Информация : Audio Coding 3
Идентификатор кодека : 2000
Продолжительность : 1 ч. 33 м.
Вид битрейта : Постоянный
Битрейт : 384 Кбит/сек
Каналы : 6 каналов
Расположение каналов : Front: L C R, Side: L R, LFE
Частота : 48,0 КГц
Частота кадров : 31,250 кадров/сек (1536 SPF)
Битовая глубина : 16 бит
Метод сжатия : С потерями
Размер потока : 256 Мбайт (18%)
Выравнивание : Разделение по промежуткам
Продолжительность промежутка : 42 мс. (1,00 видеокадр)
Время предзагрузки промежутка : 500 мс.
ServiceKind/String : Complete Main
Трейлер
Download / Скачать

Хотите скачать бесплатно? Зарегистрируйтесь на сайте (ссылка на регистрацию). Pirat.ca - самый быстрый торрент трекер в рунете!

Как скачивать  ·   Что такое торрент  ·   Рейтинг и ограничения

Алeкс

Корсар

95

Пост 14-Фев-2018 09:28 (спустя 20 минут)

[Q] 

спасибо за раздачу! Лови бочку
[Профиль]  [ЛС] 

SM 96

Легенда

Пост 14-Фев-2018 13:24 (спустя 3 часа)

[Q] 

Автору за раздачу Лови бочку
По фильму .Хорошие артисты ,но чушь несусветная. На любителя
[Профиль]  [ЛС] 

studentUA

Корсар

56

Пост 14-Фев-2018 22:29 (спустя 9 часов)

[Q] 

не надо ето качать
[Профиль]  [ЛС] 

vasdas

Корсар

Пост 15-Фев-2018 01:59 (спустя 3 часа)

[Q] 

спасибо, посмотрим Автору респект!!!
[Профиль]  [ЛС] 

Skat.56

Легенда

452

Пост 16-Фев-2018 02:54 (спустя 1 день)

[Q] 

Да ну не сказать, что бы уж совсем г, так, серединка. Если уж совсем смотреть нечего то пойдет.

_________________
[Профиль]  [ЛС] 

ТАЛИ

Флибустьер

Пост 17-Фев-2018 02:38 (спустя 23 часа)

[Q] 

Мы в школьной самодеятельности подобные сюжеты разыгрывали... Сценарием здесь и не пахнет, просто междусобойчик, причем режиссер возомнил себя знатоком греческих мифов и, в принципе, с разной степени удачности проецирует их на московскую киношную и околокиношную тусовку. Причем с первой же мифологической аллюзиией вышла незадача - Диоскуров, символов братской любви, кажется спутали с Каином и Авелем... Мелочь какая, правда? Ну и весь фильм такой ... тяп-ляп, причем со звездами почти как на новогоднем огоньке... Но если отключить мозг, то можно даже посмеяться... чуть-чуть.
[Профиль]  [ЛС] 

zvezda_2s

Флибустьер

Пост 17-Фев-2018 12:07 (спустя 9 часов)

[Q] 

Ясно. Спасибо за совет...
[Профиль]  [ЛС] 

Ювелир

Штурман

Пост 18-Фев-2018 17:59 (спустя 1 день 5 часов)

[Q] 

Это реально бредь блеадьЮ не траттье время не качайте и не смотрите
[Профиль]  [ЛС] 

ketzer

Корсар

Пост 23-Фев-2018 03:18 (спустя 4 дня)

[Q] 

Это НЕ сарик адреасян, смысла фильму не хватает, но люди всерьёз старались.
[Профиль]  [ЛС] 

Sharifulla

Корсар

Пост 24-Фев-2018 13:46 (спустя 1 день 10 часов)

[Q] 

Мюзикл какой то, АВТОР СПАСИБО ЗА ТРУДЫ
[Профиль]  [ЛС] 

lexaspirit

Пост 26-Фев-2018 21:39 (спустя 2 дня 7 часов)

[Q] 

Мне хватило только на 20 мин. Дальше не осилил. Не по мне такие фильмы

_________________
-------------------- ----------------------
[Профиль]  [ЛС] 

usya5

Корсар

Пост 02-Мар-2018 22:16 (спустя 4 дня)

[Q] 

спасибо за отзывы!!!
[Профиль]  [ЛС] 

tomaszzzz

Шкипер

Пост 25-Мар-2018 00:37 (спустя 22 дня)

[Q] 

здесь был текст (исправлено модератором)
!Андря писал(а):

голову лечим
[Профиль]  [ЛС] 

proh2000

Морской Волк

Пост 30-Мар-2018 13:22 (спустя 5 дней)

[Q] 

не думал что такое будет популярно. спасибо за раздачу
[Профиль]  [ЛС] 

Skala973

Корсар

Пост 13-Апр-2018 04:24 (спустя 13 дней)

[Q] 

Такой бред! Надо просто постараться выдумать и снять.
Сначала надеялся найти что-то достойное внимания, а потом уже точно понял - это идиотский фильм снятый для отмывания бабок.
[Профиль]  [ЛС] 
Показать сообщения:    
Ответить на тему

Текущее время: Сегодня 03:48

Часовой пояс: GMT + 4



Вы не можете начинать темы
Вы не можете отвечать на сообщения
Вы не можете редактировать свои сообщения
Вы не можете удалять свои сообщения
Вы не можете голосовать в опросах
Вы не можете прикреплять файлы к сообщениям
Вы не можете скачивать файлы

▼ Вниз