Уважаемый Гость!
Вы можете поддержать проект и зарегистрироваться у наших партнеров - онлайн-стратегия MyLands. При регистрации в игре Вы получите код, который сможете активировать после регистрации на pirat.ca и получить 1000 дублонов.

Ваш код:
b504cb9d6185c3af6de5b6409bbe29f2a270a19a
 
     

Легенда о Коловрате (Джаник Файзиев, Иван Шурховецкий) [2017 г., история, боевик, фэнтези, BDRip-AVC] Original (RUS) [Лицензия]

Ответить на тему
 
Автор
Сообщение

Пост 25-Фев-2018 14:53

[Q] 

aleksey99

--Легенда о Коловрате--«Героем может стать каждый»-- Производство: Россия
Год выпуска: 2017 г.
Жанр: история, боевик, фэнтези
Продолжительность: 01:57:52--Мировая премьера: 1 декабря 2017
Российская премьера: 30 ноября 2017, «Централ Партнершип»
Цифровой релиз: 06 февраля 2018, «Централ Партнершип»--Режиссер: Джаник Файзиев, Иван Шурховецкий--В ролях: Илья Малаков, Полина Чернышова, Алексей Серебряков, Александр Ильин мл., Игорь Савочкин, Тимофей Трибунцев, Александр Цой, Юлия Хлынина, Андрей Бурковский, Виктор Проскурин--Описание: XIII век. Русь раздроблена и вот-вот падет на колени перед ханом Золотой Орды Батыем. Испепеляя города и заливая русские земли кровью, захватчики не встречают серьезного сопротивления, и лишь один воин бросает им вызов. Молодой рязанский витязь Евпатий Коловрат возглавляет отряд смельчаков, чтобы отомстить за свою любовь и за свою родину. Его отвага поразит даже Батыя, а его имя навсегда останется в памяти народа. Воин, ставший легендой. Подвиг, сохранившийся в веках.-- --Качество видео: BDRip-AVC
Контейнер: MKV
Видео кодек: H.264
Аудио кодек: AC3
Видео: x264, 1152x482 (2.40:1), 23.976 fps, 3082 Kbps, 0.231 bit/pixel
Аудио: 48 kHz, AC3 Dolby Digital, 3/2 (L,C,R,l,r) + LFE ch, ~448 kbps
Cубтитры: русские (форсированные)
Общее
Уникальный идентификатор : 253426588416297769526563349429067896201 (0xBEA82F7F1F59377A8C2819FDA31AD589)
Полное имя : H:\Torrent2\Legenda.o.Kolovrate.2017.BDRip-AVC.RUS.mkv
Формат : Matroska
Версия формата : Version 4 / Version 2
Размер файла : 2,91 Гбайт
Продолжительность : 1 ч. 57 м.
Общий поток : 3532 Кбит/сек
Дата кодирования : UTC 2018-02-25 07:59:59
Программа кодирования : mkvmerge v8.6.1 ('Flying') 64bit
Библиотека кодирования : libebml v1.3.3 + libmatroska v1.4.4
Видео
Идентификатор : 1
Формат : AVC
Формат/Информация : Advanced Video Codec
Профиль формата : [email protected]
Настройки формата : CABAC / 12 Ref Frames
Параметр CABAC формата : Да
Параметр RefFrames формата : 12 кадров
Идентификатор кодека : V_MPEG4/ISO/AVC
Продолжительность : 1 ч. 57 м.
Битрейт : 3082 Кбит/сек
Ширина : 1152 пикселя
Высота : 482 пикселя
Соотношение сторон : 2,40:1
Режим частоты кадров : Постоянный
Частота кадров : 23,976 (24000/1001) кадра/сек
Цветовое пространство : YUV
Субдискретизация насыщенности : 4:2:0
Битовая глубина : 8 бит
Тип развёртки : Прогрессивная
Бит/(Пиксели*Кадры) : 0.231
Размер потока : 2,54 Гбайт (87%)
Библиотека кодирования : x264 core 152 r2851kMod ba24899
Настройки программы : cabac=1 / ref=12 / deblock=1:-3:-2 / analyse=0x3:0x133 / me=umh / subme=11 / psy=1 / fade_compensate=0.00 / psy_rd=1.00:0.00 / mixed_ref=1 / me_range=32 / chroma_me=1 / trellis=2 / 8x8dct=1 / cqm=0 / deadzone=21,11 / fast_pskip=0 / chroma_qp_offset=-2 / threads=12 / lookahead_threads=3 / sliced_threads=0 / nr=0 / decimate=1 / interlaced=0 / bluray_compat=0 / constrained_intra=0 / bframes=14 / b_pyramid=2 / b_adapt=2 / b_bias=0 / direct=3 / weightb=1 / open_gop=0 / weightp=2 / keyint=240 / keyint_min=23 / scenecut=40 / intra_refresh=0 / rc_lookahead=60 / rc=crf / mbtree=0 / crf=18.5000 / qcomp=0.65 / qpmin=0 / qpmax=69 / qpstep=4 / vbv_maxrate=50000 / vbv_bufsize=62500 / crf_max=0.0 / nal_hrd=none / filler=0 / ip_ratio=1.40 / pb_ratio=1.30 / aq=3:0.87 / zones=162213,169563,q=32
Default : Да
Forced : Нет
Аудио
Идентификатор : 2
Формат : AC-3
Формат/Информация : Audio Coding 3
Идентификатор кодека : A_AC3
Продолжительность : 1 ч. 57 м.
Вид битрейта : Постоянный
Битрейт : 448 Кбит/сек
Каналы : 6 каналов
Расположение каналов : Front: L C R, Side: L R, LFE
Частота : 48,0 КГц
Частота кадров : 31,250 кадров/сек (1536 SPF)
Битовая глубина : 16 бит
Метод сжатия : С потерями
Размер потока : 378 Мбайт (13%)
Язык : Russian
ServiceKind/String : Complete Main
Default : Да
Forced : Нет
Текст
Идентификатор : 3
Формат : UTF-8
Идентификатор кодека : S_TEXT/UTF8
Идентификатор кодека/Информация : UTF-8 Plain Text
Продолжительность : 1 ч. 43 м.
Битрейт : 0 бит/сек
ElementCount : 2
Размер потока : 57,0 байт (0%)
Заголовок : Forced
Язык : Russian
Default : Да
Forced : Нет
Меню
00:00:00.000 : en:Chapter 1
00:08:35.097 : en:Chapter 2
00:18:09.338 : en:Chapter 3
00:28:31.918 : en:Chapter 4
00:37:28.454 : en:Chapter 5
00:47:46.822 : en:Chapter 6
00:59:16.302 : en:Chapter 7
01:10:23.761 : en:Chapter 8
01:17:08.373 : en:Chapter 9
01:31:40.411 : en:Chapter 10
01:40:22.516 : en:Chapter 11
01:47:39.244 : en:Chapter 12
Трейлер
Download / Скачать

Хотите скачать бесплатно? Зарегистрируйтесь на сайте (ссылка на регистрацию). Pirat.ca - самый быстрый торрент трекер в рунете!

Как скачивать  ·   Что такое торрент  ·   Рейтинг и ограничения

savicus

Корсар

Пост 27-Фев-2018 11:31 (спустя 1 день 20 часов)

[Q] 

Фильм замечательный.
ОЧЕНЬ рекомендую!
[Профиль]  [ЛС] 

Apostle358

Корсар

167

Пост 28-Фев-2018 06:42 (спустя 19 часов)

[Q] 

Это как??? Жанр: история, боевик, фэнтези WTF!
[Профиль]  [ЛС] 

alex198408

Корсар

Пост 06-Мар-2018 01:15 (спустя 5 дней)

[Q] 

как кино стоит качать? Спасибо!!!
[Профиль]  [ЛС] 

vasdas

Корсар

Пост 07-Мар-2018 04:07 (спустя 1 день 2 часа)

[Q] 

хорошая художественная экранизация древнерусских былин Автору респект!!! немного упрощено, но смотрится легко, мне понравилось Лови бочку
[Профиль]  [ЛС] 

Alhimik

Шкипер

17

Пост 08-Мар-2018 01:01 (спустя 20 часов)

[Q] 

Когда же у нас наконец то начнут снимать хорошее патриотическое кино, а не это овно?!
Как уже заколебали, мать его, Ебатий Коловрат и Хан Ба....., нет не Батый, судя по фильму Педро, Хан Педро.
Посмотрите лучше фильм "Александр Невский", 1938 года, вот это было и есть кино. А то что в раздаче, это ОВНО.
[Профиль]  [ЛС] 

fanat12

Лоцман

Пост 11-Мар-2018 20:32 (спустя 3 дня)

[Q] 

820584Когда же у нас наконец то начнут снимать хорошее патриотическое кино, а не это овно?!
Как уже заколебали, мать его, Ебатий Коловрат и Хан Ба....., нет не Батый, судя по фильму Педро, Хан Педро.
Посмотрите лучше фильм "Александр Невский", 1938 года, вот это было и есть кино. А то что в раздаче, это ОВНО.
согласен полностью!!!!
не фильм, а хрень полная!!!!
[Профиль]  [ЛС] 

Mustafa Sazont

Морской Волк

Пост 13-Мар-2018 14:28 (спустя 1 день 17 часов)

[Q] 

Неплохая сказка. Помню в детстве ждал воскресенья чтобы посмотреть передачу "В гостях у сказки", так вот это кино как раз для этой передачи. Но снято качественно для отечественного кинопроката.
[Профиль]  [ЛС] 

tomaszzzz

Шкипер

Пост 25-Мар-2018 00:22 (спустя 11 дней)

[Q] 

Докуя патриотизма ребят..... на волоколамск да балашиху б кино нашлось ..... простите русофоба но далеко не уйдем были рабами так и помрем мне кажется....34 года урал
[Профиль]  [ЛС] 

Роман Чистов

Шкипер

Пост 25-Мар-2018 02:43 (спустя 2 часа 21 минута)

[Q] 

А то что в раздаче, это ОВНО.
Когда начал смотреть, настроился на "ОВНО". Но, к счастью, все не так стремно за исключением пары-тройки киноляпов и нескольких штампов (с магическим медведем-годзиллой явный перебор - тут вам не "Темная Башня" Кинга). Есть дефекты монтажа (логические), - когда некоторые кадры могли бы вовсе не включать в картину (загадочное появление брянских хлопцев про которых потом почти не вспоминают), а каких-то кадров напротив - не хватает (надеюсь, режиссерская версия тоже будет).
В общем, фильм вполне годный - наш ответ "300 спартанцам" с элементами "Властелина колец".
[Профиль]  [ЛС] 

[email protected]x.ru

Лоцман

Пост 26-Мар-2018 13:57 (спустя 1 день 11 часов)

[Q] 

феерическое дермищеее
[Профиль]  [ЛС] 

proh2000

Морской Волк

Пост 03-Апр-2018 09:22 (спустя 7 дней)

[Q] 

Суперский фильм. ОООЧень понравилось
[Профиль]  [ЛС] 

studentUA

Корсар

56

Пост 05-Апр-2018 03:28 (спустя 1 день 18 часов)

[Q] 

на любителя Зуб даю...
[Профиль]  [ЛС] 

Nik DeBori

Корсар

Пост 05-Апр-2018 11:04 (спустя 7 часов)

[Q] 

На любителя. Спасибо!
[Профиль]  [ЛС] 

Skala973

Корсар

Пост 13-Апр-2018 04:28 (спустя 7 дней)

[Q] 

Да, фильм патриотичный, но такой фантастически размалёванный! Ну прямо на 100% срисован с западных фильмов.
Только сюжетная линия с отечественными корнями. А так...
Герои все чистенькие, домишки у них уютные просторные, и у батыя тоже самое. Чистые все и благородные!
Не натурально это, слишком натянуто.
Но зато патриотично.
[Профиль]  [ЛС] 
Показать сообщения:    
Ответить на тему

Текущее время: Сегодня 04:03

Часовой пояс: GMT + 4



Вы не можете начинать темы
Вы не можете отвечать на сообщения
Вы не можете редактировать свои сообщения
Вы не можете удалять свои сообщения
Вы не можете голосовать в опросах
Вы не можете прикреплять файлы к сообщениям
Вы не можете скачивать файлы

▼ Вниз