Герои Энвелла / Heroes of Envell / Сезон: 1 / Серии: 1-18 из 26 (Антон Ланшаков/Anton Lanshakov) [2017 г., мультфильм, фантастика, WEB-DLRip, 720p](Обновляемая)

Ответить на тему
 
Автор
Сообщение

Пост 13-Апр-2018 14:00

[Q] 

AlexDjas

Флибустьер

--Герои Энвелла / Heroes of Envell-- Производство: Россия (Анимационная Студия "Паровоз")
Режиссёр: Антон Ланшаков/Anton Lanshakov
Жанр: мультфильм, фантастика
Год выпуска: 2017 г.
Продолжительность: 00:11:00
Перевод: Не требуется
Роли озвучивали: Евгений Михеев, Андрей Шишков, Виталий Щербина, Артем Кошман, Борис Репетур, Владимир Антоник--Описание: Санкт-Петербург, наше время.Герои Энвелла являлась популярной браузерной игрой, в которую рубились большинство школьников. Артём, Виктор, Кира и Филип делали это прямо на уроке, за что Марья Ивановна наказала их конфискацией телефонов до конца занятий. Не самый подходящий момент, ведь в игре как раз шёл редкий ивент с кучей призов и легендарным лутом. До конца оставалось три минуты, но ребят это не остановило и на перемене они без спроса проникли в учительскую. Правда телефонов там не обнаружили, зато нашли чужой ноут, с которого и решили залогениться. Пара кликов и друзья волшебным образом перемещаются в мир Энвелла, где с ними начинают происходить настоящие чудеса. Но только, в отличие от компьютерной, опасности и приключения этой игры реальны.
Мир игры представляет собой смесь Средневековья, стимпанка и технологий далекого будущего. Никогда не угадаешь, что ждет игроков «Героев Энвелла». Как и антураж, логика игры непредсказуема. Начавшийся квест здесь легко превратится в гонку, шутер или логическую задачку. Но легко или скучно точно не будет.--
Качество видео: WEB-DLRip
Контейнер: MKV
Стандарт разрешения: 720p
Видео кодек: MPEG4 AVC
Аудио кодек: AC3
Видео: H.264/AVC, 1280x720, ~2000 kbps, 25 fps
Аудио: 44,1 kHz, AС3, 2 ch, 192 kbps - Русский
Cубтитры: отсутствуют
Общее
Уникальный идентификатор : 129631479246539351294099311207685697883 (0x61861D61045B83D9E238507F8D8A315B)
Полное имя : D:\торрент\Heroes of Envell[pirat.ca]\03_Ферма.mkv
Формат : Matroska
Версия формата : Version 4 / Version 2
Размер файла : 106 Мбайт
Продолжительность : 11 м. 0 с.
Общий поток : 1350 Кбит/сек
Программа кодирования : Lavf57.25.100
Библиотека кодирования : Lavf57.25.100
Видео
Идентификатор : 1
Формат : AVC
Формат/Информация : Advanced Video Codec
Профиль формата : Baseline@L3
Настройки формата : 2 Ref Frames
Параметр CABAC формата : Нет
Параметр RefFrames формата : 2 кадра
Идентификатор кодека : V_MPEG4/ISO/AVC
Продолжительность : 11 м. 0 с.
Битрейт : 1131 Кбит/сек
Ширина : 1280 пикселей
Высота : 720 пикселей
Соотношение сторон : 16:9
Режим частоты кадров : Постоянный
Частота кадров : 25,000 кадров/сек
Цветовое пространство : YUV
Субдискретизация насыщенности : 4:2:0
Битовая глубина : 8 бит
Тип развёртки : Прогрессивная
Бит/(Пиксели*Кадры) : 0.049
Размер потока : 89,0 Мбайт (84%)
Библиотека кодирования : x264 core 144 r2533 c8a773e
Настройки программы : cabac=0 / ref=2 / deblock=1:1:1 / analyse=0x1:0x131 / me=umh / subme=10 / psy=1 / psy_rd=0.40:0.00 / mixed_ref=1 / me_range=24 / chroma_me=1 / trellis=2 / 8x8dct=0 / cqm=0 / deadzone=21,11 / fast_pskip=1 / chroma_qp_offset=-2 / threads=24 / lookahead_threads=2 / sliced_threads=0 / nr=0 / decimate=1 / interlaced=0 / bluray_compat=0 / constrained_intra=0 / bframes=0 / weightp=0 / keyint=200 / keyint_min=20 / scenecut=40 / intra_refresh=0 / rc_lookahead=60 / rc=crf / mbtree=1 / crf=26.0 / qcomp=0.60 / qpmin=0 / qpmax=69 / qpstep=4 / ip_ratio=1.40 / aq=1:0.60
Default : Да
Forced : Нет
Аудио
Идентификатор : 2
Формат : AC-3
Формат/Информация : Audio Coding 3
Идентификатор кодека : A_AC3
Продолжительность : 11 м. 0 с.
Вид битрейта : Постоянный
Битрейт : 192 Кбит/сек
Каналы : 2 канала
Расположение каналов : Front: L R
Частота : 44,1 КГц
Частота кадров : 28,711 кадров/сек (1536 SPF)
Битовая глубина : 16 бит
Метод сжатия : С потерями
Размер потока : 15,1 Мбайт (14%)
ServiceKind/String : Complete Main
Default : Да
Forced : Нет
Общее
Уникальный идентификатор : 58674784610157461970362414400914720969 (0x2C245A3B382F02B1259B5638F00A08C9)
Полное имя : D:\торрент\Heroes of Envell[pirat.ca]\12_Редактор уровней.mkv
Формат : Matroska
Версия формата : Version 4 / Version 2
Размер файла : 88,6 Мбайт
Продолжительность : 11 м. 0 с.
Общий поток : 1126 Кбит/сек
Программа кодирования : Lavf57.71.100
Библиотека кодирования : Lavf57.71.100
ErrorDetectionType : Per level 1
Видео
Идентификатор : 1
Формат : AVC
Формат/Информация : Advanced Video Codec
Профиль формата : Baseline@L3
Настройки формата : 2 Ref Frames
Параметр CABAC формата : Нет
Параметр RefFrames формата : 2 кадра
Идентификатор кодека : V_MPEG4/ISO/AVC
Продолжительность : 11 м. 0 с.
Битрейт : 912 Кбит/сек
Ширина : 1280 пикселей
Высота : 720 пикселей
Соотношение сторон : 16:9
Режим частоты кадров : Постоянный
Частота кадров : 25,000 кадров/сек
Цветовое пространство : YUV
Субдискретизация насыщенности : 4:2:0
Битовая глубина : 8 бит
Тип развёртки : Прогрессивная
Бит/(Пиксели*Кадры) : 0.040
Размер потока : 71,7 Мбайт (81%)
Библиотека кодирования : x264 core 144 r2533 c8a773e
Настройки программы : cabac=0 / ref=2 / deblock=1:1:1 / analyse=0x1:0x131 / me=umh / subme=10 / psy=1 / psy_rd=0.40:0.00 / mixed_ref=1 / me_range=24 / chroma_me=1 / trellis=2 / 8x8dct=0 / cqm=0 / deadzone=21,11 / fast_pskip=1 / chroma_qp_offset=-2 / threads=2 / lookahead_threads=1 / sliced_threads=0 / nr=0 / decimate=1 / interlaced=0 / bluray_compat=0 / constrained_intra=0 / bframes=0 / weightp=0 / keyint=200 / keyint_min=20 / scenecut=40 / intra_refresh=0 / rc_lookahead=60 / rc=crf / mbtree=1 / crf=26.0 / qcomp=0.60 / qpmin=0 / qpmax=69 / qpstep=4 / ip_ratio=1.40 / aq=1:0.60
Default : Да
Forced : Нет
Аудио
Идентификатор : 2
Формат : AC-3
Формат/Информация : Audio Coding 3
Идентификатор кодека : A_AC3
Продолжительность : 11 м. 0 с.
Вид битрейта : Постоянный
Битрейт : 192 Кбит/сек
Каналы : 2 канала
Расположение каналов : Front: L R
Частота : 44,1 КГц
Частота кадров : 28,711 кадров/сек (1536 SPF)
Битовая глубина : 16 бит
Метод сжатия : С потерями
Размер потока : 15,1 Мбайт (17%)
ServiceKind/String : Complete Main
Default : Да
Forced : Нет
01. Новая игра.
02. Бойлерная.
03. Ферма.
04. Замок.
05. Жилой квартал.
06. Магазин.
07. Ворота из города.
08. Поляна в лесу.
09. Ущелье.
10. Неизвестная локация.
11. Тайное поселение.
12. Редактор уровней.
13. Тронный зал.
14. Замок Моргата.
15. Башня связи.
16. Шахта.
17. Край карты.
18. Продолжить игру.
Раздача ведётся путём добавления новых серий; при каждом добавлении создаётся новый торрент.
Чтобы начать докачку новой серии, пользователям необходимо сделать следующее:
1. остановить скачивание,
2. удалить старый торрент у себя из клиента (старые серии удалять не надо),
3. скачать новый торрент и запустить его у себя в клиенте вместо старого, при этом указать клиенту путь в старую папку, куда и должно происходить скачивание новых серий.
Ваш клиент при этом должен произвести хеширование (проверку) старой папки (если не производит сам - помогите ему сделать это), и будет докачивать только те серии которых у вас ещё нет. Старые серии при этом не удаляются, а продолжают раздаваться!
Eсли вы уже удалили старые серии, то предотвратить повторную закачку старых серий можно, отжав галочку в соответствующих местах при запуске нового торрента. По возможности, желательно не удалять старые серии как можно дольше, чтобы релизёр не столько продолжал раздавать старые серии, а смог сконцентрироваться на новых.
Совет для тех, кто не хочет ждать перехеширования:
Создайте ещё одну папку рядом с папкой сериала (рядом, а не в ней!!!). Каждую новую серию после удачной загрузки копируйте в новую папку так чтобы ваша основная папка всегда была пуста. Когда ваш новый торрент предложит вам закачать все файлы, выберете только последнюю. Для сидирования же укажите адрес новой папки.
Как закачать отдельный файл из торрента или докачать ранее пропущенные файлы торрента!
1. Открыть торрент
2. Снять галки с тех файлов торрента, которые мы не хотим закачивать. Оставляем только на нужных нам файлах (файле).
3. Нажать О.К.
В клиенте utorrent
Инструкция
1) Открыть торрент

2) Снять галки с тех файлов торрента, которые мы не хотим закачивать:
* либо вручную, снимая с каждого файла галку( скрин №1)
* либо, нажав кнопку "Снять метки (Select None)", сняв сразу со всех файлов(скрин №2)
№1

№2

Оставляем только на нужных нам файлах (файле).

3)Нажать О.К
--Приятного просмотра !!!--
Download / Скачать

Хотите скачать бесплатно? Зарегистрируйтесь на сайте (ссылка на регистрацию). Pirat.ca - самый быстрый торрент трекер в рунете!

Как скачивать  ·   Что такое торрент  ·   Рейтинг и ограничения

AlexDjas ®

Флибустьер

5342

Пост Сегодня 08:13 (спустя 3 месяца 4 дня)

[Q] 

Добавлены 16, 17 и 18 серии

_________________
- Один терапевт - это 1024 гигапевта, или 1048576 мегапевтов!
[Профиль]  [ЛС] 

v230v

Шкипер

Пост Сегодня 12:19 (спустя 4 часа)

[Q] 

спасибо!!!!
На форуме  [Профиль]  [ЛС] 
Показать сообщения:    
Ответить на тему

Текущее время: Сегодня 12:48

Часовой пояс: GMT + 4



Вы не можете начинать темы
Вы не можете отвечать на сообщения
Вы не можете редактировать свои сообщения
Вы не можете удалять свои сообщения
Вы не можете голосовать в опросах
Вы не можете прикреплять файлы к сообщениям
Вы не можете скачивать файлы

Майнать ▼