Террор / The Terror / Сезон: 1 / Серии: 1-10 из 10 (Тим Милантс / Tim Mielants) [2018, Ужасы, драма, HDTVRip 720р] MVO (SunshineStudio)

Ответить на тему
 
Автор
Сообщение

Пост 12-Апр-2018 20:14

[Q] 

tank69

Корсар

-Террор / The Terror-- Производство: США, АМС
Жанр: ужасы, драма
Год выпуска: 2018 г.
Продолжительность: 00:46:30
Мировая премьера: 26 марта 2018
Российская премьера: 26 марта 2018
Перевод: Любительский (двухголосый, закадровый) - [SunshineStudio]
Режиссёр: Тим Милантс / Tim Mielants-В ролях: Джаред Харрис, Киран Хайндс, Тобайас Мензис, Крис Корригэн, Иэн Харт, Кристос Лоутон, Мэттью МакНалти, Адам Нагаитис, Нив Нилсен, Пол Рэди-Описание: В 1845 году экспедиция под командованием опытного полярного исследователя сэра Джона Франклина отправляется на судах «Террор» и «Эребус» к северному побережью Канады на поиск Северо-Западного прохода из Атлантического океана в Тихий - и бесследно исчезает. Поиски ее затянулись на несколько десятилетий, сведения о ее судьбе собирались буквально по крупицам, и до сих пор картина происшедшего пестрит белыми пятнами... Дэн Симмонс, знаменитый автор «Гипериона» и «Эндимиона», «Илиона» и «Олимпа», «Песни Кали» и «Темной игры смерти», предлагает свою версию событий: главную угрозу для экспедиции составляли не сокрушительные объятия льда, не стужа с вьюгой и не испорченные консервы - а неведомое исполинское чудовище, будто сотканное из снега и полярного мрака.-
Качество видео: HDTVRip
Контейнер: MKV
Видео кодек: AVC
Аудио кодек: AC3
Видео: AVC, 1280x720, 23.976 fps, 2100 Kbps
Аудио: AC-3, 48.0 KHz, 2 ch, 192 Kbps
Cубтитры: отсутствуют
Продюсер: Ридли Скотт, Крис Томпсон, Эдвард Бергер, Гаймон Кеседи, Дэн Симмонс, Дэвид В. Зукер, Скотт Ламберт, Александра Милчэн, Су Хью, Скотт Фри, Робин-Ален Фельдман, Джордан Шиэн, Эрика Милутин
Сценарист: Дэн Симмонс
Монтажер: Тим Мёрелл, Эндрю МакРитчи, Дэниэл Гринуэй
Оператор: Флориан Хоффмайстер, Коля Брандт
Формат : Matroska
Версия формата : Version 4 / Version 2
Размер файла : 763 Мбайт
Продолжительность : 46 м. 30 с.
Общий поток : 2294 Кбит/сек
Дата кодирования : UTC 2018-03-26 15:52:56
Программа кодирования : mkvmerge v8.3.0 ('Over the Horizon') 64bit
Библиотека кодирования : libebml v1.3.1 + libmatroska v1.4.2
Видео
Идентификатор : 1
Формат : AVC
Формат/Информация : Advanced Video Codec
Профиль формата : [email protected]
Настройки формата : CABAC / 4 Ref Frames
Параметр CABAC формата : Да
Параметр RefFrames формата : 4 кадра
Идентификатор кодека : V_MPEG4/ISO/AVC
Продолжительность : 46 м. 30 с.
Битрейт : 2100 Кбит/сек
Ширина : 1280 пикселей
Высота : 720 пикселей
Соотношение сторон : 16:9
Режим частоты кадров : Постоянный
Частота кадров : 23,976 (23976/1000) кадра/сек
Цветовое пространство : YUV
Субдискретизация насыщенности : 4:2:0
Битовая глубина : 8 бит
Тип развёртки : Прогрессивная
Бит/(Пиксели*Кадры) : 0.095
Размер потока : 699 Мбайт (92%)
Библиотека кодирования : x264 core 146 r2538 121396c
Настройки программы : cabac=1 / ref=1 / deblock=1:0:0 / analyse=0x3:0x113 / me=hex / subme=2 / psy=1 / psy_rd=1.00:0.00 / mixed_ref=0 / me_range=16 / chroma_me=1 / trellis=0 / 8x8dct=1 / cqm=0 / deadzone=21,11 / fast_pskip=1 / chroma_qp_offset=0 / threads=6 / lookahead_threads=2 / sliced_threads=0 / nr=0 / decimate=1 / interlaced=0 / bluray_compat=0 / constrained_intra=0 / bframes=3 / b_pyramid=2 / b_adapt=1 / b_bias=0 / direct=1 / weightb=1 / open_gop=0 / weightp=1 / keyint=250 / keyint_min=23 / scenecut=40 / intra_refresh=0 / rc_lookahead=10 / rc=crf / mbtree=1 / crf=18.0 / qcomp=0.60 / qpmin=0 / qpmax=69 / qpstep=4 / ip_ratio=1.40 / aq=1:1.00
Default : Да
Forced : Нет
Аудио
Идентификатор : 2
Формат : AC-3
Формат/Информация : Audio Coding 3
Идентификатор кодека : A_AC3
Продолжительность : 46 м. 30 с.
Вид битрейта : Постоянный
Битрейт : 192 Кбит/сек
Каналы : 2 канала
Расположение каналов : Front: L R
Частота : 48,0 КГц
Частота кадров : 31,250 кадров/сек (1536 SPF)
Битовая глубина : 16 бит
Метод сжатия : С потерями
Размер потока : 63,9 Мбайт (8%)
ServiceKind/String : Complete Main
Default : Да
Forced : Нет
Внимание! Релиз изобилует рекламой
Download / Скачать

Хотите скачать бесплатно? Зарегистрируйтесь на сайте (ссылка на регистрацию). Pirat.ca - самый быстрый торрент трекер в рунете!

Как скачивать  ·   Что такое торрент  ·   Рейтинг и ограничения



Последний раз редактировалось: tank69 (2018-04-14 09:54), всего редактировалось 14 раз(а)

Всеволод96

Штурман

Пост 13-Апр-2018 11:33 (спустя 15 часов)

[Q] 

чей перевод позвольте поинтересоваться?
[Профиль]  [ЛС] 

tank69 ®

Корсар

1147

Пост 13-Апр-2018 14:07 (спустя 2 часа 33 минуты)

[Q] 

Всеволод96,
Перевод - от "SunshineStudio", перевод вполне приемлем, во всяком случае, не напрягает при просмотре)
А сериал - супер, реально, интересный)
[Профиль]  [ЛС] 
Показать сообщения:    
Ответить на тему

Текущее время: Сегодня 06:02

Часовой пояс: GMT + 4



Вы не можете начинать темы
Вы не можете отвечать на сообщения
Вы не можете редактировать свои сообщения
Вы не можете удалять свои сообщения
Вы не можете голосовать в опросах
Вы не можете прикреплять файлы к сообщениям
Вы не можете скачивать файлы

Майнать ▼