Зверопой / Sing (Кристоф Лурделе, Гарт Дженнингс / Christophe Lourdelet, Garth Jennings) [2016 г., мультфильм, комедия, семейный, музыка, BDRip] Dub [Лицензия]

Ответить на тему
 
Автор
Сообщение

Пост 29-Май-2017 10:25

[Q] 

ara1205

-Зверопой / Sing-- Производство: США
Год выпуска: 2016 г.
Жанр: мультфильм, комедия, семейный, музыка
Продолжительность: 01:47:53
Мировая премьера: 11 сентября 2016
Российская премьера: 2 марта 2017
Дата выхода DVD: 29 мая 2017
Дата выхода Blu-Ray: 29 мая 2017
Перевод: Профессиональный (полное дублирование) [Лицензия]-Режиссёр: Кристоф Лурделе, Гарт Дженнингс / Christophe Lourdelet, Garth Jennings-Роли озвучивали: Мэттью МакКонахи, Риз Уизерспун, Сет МакФарлейн, Скарлетт Йоханссон, Джон Си Райли, Тэрон Эджертон, Тори Келли, Дженнифер Сондерс, Дженнифер Хадсон, Гарт Дженнингс
Роли дублировали: Даниил Эльдаров, Ирина Киреева, Илья Исаев, Татьяна Шитова, Сергей Смирнов, Станислав Тикунов, Элиза Мартиросова, Любовь Германова,-Описание: В мире, который населяют звери, коала по имени Бастер Мун изо всех сил пытается предотвратить закрытие своего театра. В итоге Бастер и его друг, баран Эдди, устраивают конкурс певцов, предлагая принять участие каждому жителю города.- -Качество видео: BDRip
Контейнер: AVI
Видео кодек: XviD
Аудио кодек: AC3
Видео: 688х384, 23,976 fps, 1488 Kbps, 0.245 bits/pixel
Аудио: 48 kHz, AC3 Dolby Digital, 6 ch, 448 Kbps
Cубтитры: отсутствуют-
C:\Users\Admin\Videos\Зверопой\Zveropoy.2016.BDRip.[pirat.ca].avi
General
Complete name : C:\Users\Admin\Videos\Зверопой\Zveropoy.2016.BDRip.[pirat.ca].avi
Format : AVI
Format/Info : Audio Video Interleave
File size : 1.46 GiB
Duration : 1 h 47 min
Overall bit rate : 1 944 kb/s
Video #0
ID : 0
Format : MPEG-4 Visual
Format profile : Advanced Simple@L5
Format settings, BVOP : 1
Format settings, QPel : No
Format settings, GMC : No warppoints
Format settings, Matrix : Custom
Codec ID : XVID
Codec ID/Hint : XviD
Duration : 1 h 47 min
Bit rate : 1 488 kb/s
Width : 688 pixels
Height : 368 pixels
Display aspect ratio : 1.85:1
Frame rate : 23.976 (24000/1001) FPS
Color space : YUV
Chroma subsampling : 4:2:0
Bit depth : 8 bits
Scan type : Progressive
Compression mode : Lossy
Bits/(Pixel*Frame) : 0.245
Stream size : 1.12 GiB (77%)
Writing library : XviD 73
Audio #1
ID : 1
Format : AC-3
Format/Info : Audio Coding 3
Mode extension : CM (complete main)
Format settings, Endianness : Big
Codec ID : 2000
Duration : 1 h 47 min
Bit rate mode : Constant
Bit rate : 448 kb/s
Channel(s) : 6 channels
Channel positions : Front: L C R, Side: L R, LFE
Sampling rate : 48.0 kHz
Frame rate : 31.250 FPS (1536 spf)
Compression mode : Lossy
Stream size : 346 MiB (23%)
Alignment : Aligned on interleaves
Interleave, duration : 64 ms (1.53 video frames)
Interleave, preload duration : 192 ms
Title : BD CEE
-
-
Download / Скачать

Хотите скачать бесплатно? Зарегистрируйтесь на сайте (ссылка на регистрацию). Pirat.ca - самый быстрый торрент трекер в рунете!

Как скачивать  ·   Что такое торрент  ·   Рейтинг и ограничения

E-RTY

Флибустьер

30

Пост 30-Май-2017 21:56 (спустя 1 день 11 часов)

[Q] 

Зашел на трекер а Тут Тебе Зверопой, Логан, Джон УИК 2 - мега круто - Парни спасибо, что ВЫ есть!
[Профиль]  [ЛС] 

Ливень

Корсар

Пост 14-Апр-2018 15:19 (спустя 10 месяцев 14 дней)

[Q] 

Прикольный, для семейного просмотра самое то, без пошлости
[Профиль]  [ЛС] 
Показать сообщения:    
Ответить на тему

Текущее время: Сегодня 12:42

Часовой пояс: GMT + 4



Вы не можете начинать темы
Вы не можете отвечать на сообщения
Вы не можете редактировать свои сообщения
Вы не можете удалять свои сообщения
Вы не можете голосовать в опросах
Вы не можете прикреплять файлы к сообщениям
Вы не можете скачивать файлы

Майнать ▼