Звёздные войны: Последние джедаи / Star Wars: The Last Jedi (Райан Джонсон / Rian Johnson) [2017, фантастика, фэнтези, боевик, приключения, HDRip] DUB | iTunes

Ответить на тему
 
Автор
Сообщение

Пост 14-Апр-2018 21:28

[Q] 

kugesan

Звёздные войны: Последние джедаи
Star Wars: The Last Jedi
- Год выпуска: 2017
Производство: США
Жанр: фантастика, фэнтези, боевик, приключения
Продолжительность: 02:31:51
Перевод: Профессиональный (полное дублирование) | iTunes
Субтитры: Русские форсированные (внешние)-Режиссер: Райан Джонсон / Rian Johnson
В ролях: Марк Хэмилл, Кэрри Фишер, Адам Драйвер, Дэйзи Ридли, Джон Бойега, Оскар Айзек, Энди Серкис, Лупита Нионго, Донал Глисон, Энтони Дэниелс-Описание:
Новая история о противостоянии света и тьмы, добра и зла начинается после гибели Хана Соло. В Галактике, где Первый Орден и Сопротивление яростно сражаются друг с другом в войне, героиня Рей пробудила в себе Силу. Но что произойдет, когда она встретится с единственным оставшимся в живых рыцарем-джедаем — Люком Скайуокером?
Кайло Рен перешел на Темную сторону Силы и убил собственного отца, заняв высокую позицию в Первом Ордене. Но куда приведут его неуемные амбиции, подаренные по наследству грозным дедом Дартом Вейдером? Ситуация обострится еще больше, когда мать Кайло, лидер Сопротивления Лея, вместе с По, Финном и BB-8 приступит к новой миссии.--- -Качество: HDRip
Формат: AVI
Видео кодек: XviD
Аудио кодек: AC3
Видео: XviD, 720x304, 23.976 fps, 1661 kbps, 0.317bp
Аудио: 48.0 KHz, AC3, 6 ch, 384 kbps-
Общее
Полное имя : E:\_Сериалы\Фильмы\Star.Wars.The.Last.Jedi.2017.HDRip.2.18Gb.MegaPeer\Star.Wars.The.Last.Jedi.2017.HDRip.2.18Gb.MegaPeer.avi
Формат : AVI
Формат/Информация : Audio Video Interleave
Профиль формата : OpenDML
Размер файла : 2,18 Гбайт
Продолжительность : 2 ч. 31 м.
Общий поток : 2058 Кбит/сек
Программа кодирования : VirtualDubMod 1.5.10.2 (build 2540/release)
Библиотека кодирования : VirtualDubMod build 2540/release
Видео
Идентификатор : 0
Формат : MPEG-4 Visual
Профиль формата : Advanced [email protected]
Настройки формата : BVOP1 / Custom Matrix
Параметр BVOP формата : 1
Параметр QPel формата : Нет
Параметр GMC формата : Без точки перехода
Параметр матрицы формата : Выборочная
Идентификатор кодека : XVID
Идентификатор кодека/Подсказка : XviD
Продолжительность : 2 ч. 31 м.
Битрейт : 1662 Кбит/сек
Ширина : 720 пикселей
Высота : 304 пикселя
Соотношение сторон : 2,35:1
Частота кадров : 23,976 (24000/1001) кадра/сек
Цветовое пространство : YUV
Субдискретизация насыщенности : 4:2:0
Битовая глубина : 8 бит
Тип развёртки : Прогрессивная
Метод сжатия : С потерями
Бит/(Пиксели*Кадры) : 0.317
Размер потока : 1,76 Гбайт (81%)
Библиотека кодирования : XviD 73
Аудио
Идентификатор : 1
Формат : AC-3
Формат/Информация : Audio Coding 3
Идентификатор кодека : 2000
Продолжительность : 2 ч. 31 м.
Вид битрейта : Постоянный
Битрейт : 384 Кбит/сек
Каналы : 6 каналов
Расположение каналов : Front: L C R, Side: L R, LFE
Частота : 48,0 КГц
Частота кадров : 31,250 кадров/сек (1536 SPF)
Битовая глубина : 16 бит
Метод сжатия : С потерями
Размер потока : 417 Мбайт (19%)
Выравнивание : Разделение по промежуткам
Продолжительность промежутка : 42 мс. (1,00 видеокадр)
Время предзагрузки промежутка : 500 мс.
ServiceKind/String : Complete Main
-
-
Download / Скачать

Хотите скачать бесплатно? Зарегистрируйтесь на сайте (ссылка на регистрацию). Pirat.ca - самый быстрый торрент трекер в рунете!

Как скачивать  ·   Что такое торрент  ·   Рейтинг и ограничения

katja2212

Боцман

Пост 15-Апр-2018 12:51 (спустя 15 часов)

[Q] 

Качество отличное, звук отличный. Вечером глянем чё к чему. Зуб даю...
[Профиль]  [ЛС] 

VooL

Шкипер

Пост 15-Апр-2018 15:44 (спустя 2 часа 52 минуты)

[Q] 

Фильм зачет, смотрели в кинотеатре !COOL! Автору респект!!!

_________________
Водку не обещаю, но погуляем на славу (с) Иван Сусанин
[Профиль]  [ЛС] 

alvarius7

Лоцман

Пост 16-Апр-2018 07:36 (спустя 15 часов)

[Q] 

Фильм сделали по принципу - лишь бы что нибудь снять, после шестой части саги, все эти продолжения полная лажа и хрень, имхо. У продолжений нет цели, простое зеркалирование основных частей, с новыми героями и спецэфектами.
[Профиль]  [ЛС] 

karnash

Шкипер

Пост 16-Апр-2018 18:48 (спустя 11 часов)

[Q] 

823258Фильм сделали по принципу - лишь бы что нибудь снять, после шестой части саги, все эти продолжения полная лажа и хрень, имхо. У продолжений нет цели, простое зеркалирование основных частей, с новыми героями и спецэфектами.
солидарен. нет изюминки.

_________________
курить вредно, пить противно, а умирать здоровым жалко...
[Профиль]  [ЛС] 

Askr

Шкипер

Пост 18-Апр-2018 00:00 (спустя 1 день 5 часов)

[Q] 

Забыл когда смотрел в последний раз серию, наверно лет 15 назад.
Выглядит как санта барбара уже давно
[Профиль]  [ЛС] 

Ambeg

Корсар

Пост 19-Апр-2018 13:13 (спустя 1 день 13 часов)

[Q] 

Санта барбара вернулась anime50
[Профиль]  [ЛС] 

SeaSide

Штурман

Пост 19-Апр-2018 22:32 (спустя 9 часов)

[Q] 

Вполне достойное продолжение саги. Только юмора немножко поменьше )
[Профиль]  [ЛС] 

tumparov

Корсар

Пост 22-Апр-2018 21:52 (спустя 2 дня 23 часа)

[Q] 

А мне юморок понравился, вот ждем с сыном про Хана Соло кино, там вообще по идее должна быть комедия, старый Хан всегда острил, так и молодой не должен отставать_))
[Профиль]  [ЛС] 

Роман Чистов

Шкипер

Пост 02-Май-2018 18:03 (спустя 9 дней)

[Q] 

Печальное кино... Все опошлено. Сценариста и режиссера - вздернуть на рее. Адмирал повстанцев -БАБА - вызывает недоумение и брезгливость; мотивация главных героев - непонятна; их логика - не поддается объяснению; рефлексия Люка - странна... Трехмерное восстановление некоторых героев 4,5,6 частей вызывает жалость к современным сценаристам, которые не в состоянии сделать что-то свое, не воскрешая призраков прошлого.
Чем объяснить такую деградацию? - Капиталистической штурмовщиной, падением нравов, снижением культурного уровня, чрезмерно щедрым бюджетом (настоящие шедевры создаются на коленках в сараях). А отсутствие талантливых режиссеров и сценаристов в Голливуде тут не при чем, т.к. "Изгой-1" сняли, все же, великолепно.
[Профиль]  [ЛС] 

errorist

Лоцман

Пост 05-Май-2018 22:54 (спустя 3 дня)

[Q] 

название торрент файла доставило : zhvezhdnie_voini )))))
[Профиль]  [ЛС] 

freese

Шкипер

38

Пост 05-Май-2018 23:33 (спустя 38 минут)

[Q] 

Спасибо Спасибо!!!
[Профиль]  [ЛС] 

dl22

Морской Волк

Пост 13-Май-2018 17:12 (спустя 7 дней)

[Q] 

Спасибо. Супер!
[Профиль]  [ЛС] 
Показать сообщения:    
Ответить на тему

Текущее время: Сегодня 17:51

Часовой пояс: GMT + 4



Вы не можете начинать темы
Вы не можете отвечать на сообщения
Вы не можете редактировать свои сообщения
Вы не можете удалять свои сообщения
Вы не можете голосовать в опросах
Вы не можете прикреплять файлы к сообщениям
Вы не можете скачивать файлы

Майнать ▼