Тор: Рагнарёк / Thor: Ragnarok (Тайка Вайтити / Taika Waititi) [2017 г., фантастика, боевик, комедия, приключения, WEB-DLRip] Dub [Чистый звук]

Ответить на тему
 
Автор
Сообщение

Пост 05-Фев-2018 09:02

[Q] 

aleksey99

--Тор: Рагнарёк / Thor: Ragnarok--«No Hammer. No Problem»-- Производство: США / Marvel Entertainment, Marvel Studios Inc., Walt Disney Pictures
Год выпуска: 2017 г.
Жанр: фантастика, боевик, комедия, приключения
Продолжительность: 02:10:44--Мировая премьера: 10 октября 2017
Российская премьера: 2 ноября 2017, «WDSSPR»
Цифровой релиз: 13 февраля 2018, «Уолт Дисней Компани СНГ»
Дата выхода DVD: 27 марта 2018, «Уолт Дисней Компани СНГ»
Дата выхода Blu-Ray: 27 марта 2018, «Уолт Дисней Компани СНГ»--Перевод: Профессиональный (полное дублирование) [Чистый звук]--Режиссер: Тайка Вайтити / Taika Waititi--В ролях: Крис Хемсворт, Том Хиддлстон, Идрис Эльба, Энтони Хопкинс, Кейт Бланшетт, Тесса Томпсон, Джефф Голдблюм, Карл Урбан, Марк Руффало, Бенедикт Камбербэтч--Описание: Вернувшись в Асгард в поисках таинственного врага, ведущего охоту на Камни Бесконечности, Тор обнаруживает, что действия его брата Локи, захватившего трон Асгарда, привели к приближению наиболее страшного события — Рагнарёка. По легенде, это ознаменует последнюю битву Асгарда, последствием которой станет его полное уничтожение. В попытке предотвратить это событие, Тору предстоит прибегнуть к помощи своего товарища из Мстителей — Халка. Вместе, им предстоит столкнуться лицом к лицу со злейшим врагом всех девяти миров — огненным демоном Суртуром, целью которого является исполнение пророчества о Рагнарёке и уничтожение девяти миров.-- --Качество видео: WEB-DLRip
Контейнер: AVI
Видео кодек: XviD
Аудио кодек: AC3
Видео: 720x304 (2.37:1), 23.976 fps, XviD build 73 ~1390 kbps avg, 0.27 bit/pixel
Аудио: 48 kHz, AC3 Dolby Digital, 2/0 (L,R) ch, ~192 kbps
Cубтитры: Отсутствуют .
Общее
Полное имя : H:\Torrent2\Thor.Ragnarok.2017.XviD.WEB-DLRip.avi
Формат : AVI
Формат/Информация : Audio Video Interleave
Размер файла : 1,45 Гбайт
Продолжительность : 2 ч. 10 м.
Общий поток : 1592 Кбит/сек
Программа кодирования : VirtualDubMod 1.5.10.3 | www.virtualdub-fr.org || (build 2550/release)
Библиотека кодирования : VirtualDubMod build 2550/release
Видео
Идентификатор : 0
Формат : MPEG-4 Visual
Профиль формата : Advanced [email protected]
Настройки формата : BVOP1
Параметр BVOP формата : 1
Параметр QPel формата : Нет
Параметр GMC формата : Без точки перехода
Параметр матрицы формата : Default (H.263)
Идентификатор кодека : XVID
Идентификатор кодека/Подсказка : XviD
Продолжительность : 2 ч. 10 м.
Битрейт : 1390 Кбит/сек
Ширина : 720 пикселей
Высота : 304 пикселя
Соотношение сторон : 2,35:1
Частота кадров : 23,976 (24000/1001) кадра/сек
Цветовое пространство : YUV
Субдискретизация насыщенности : 4:2:0
Битовая глубина : 8 бит
Тип развёртки : Прогрессивная
Метод сжатия : С потерями
Бит/(Пиксели*Кадры) : 0.265
Размер потока : 1,27 Гбайт (87%)
Библиотека кодирования : XviD 73
Аудио
Идентификатор : 1
Формат : AC-3
Формат/Информация : Audio Coding 3
Идентификатор кодека : 2000
Продолжительность : 2 ч. 10 м.
Вид битрейта : Постоянный
Битрейт : 192 Кбит/сек
Каналы : 2 канала
Расположение каналов : Front: L R
Частота : 48,0 КГц
Частота кадров : 31,250 кадров/сек (1536 SPF)
Битовая глубина : 16 бит
Метод сжатия : С потерями
Размер потока : 180 Мбайт (12%)
Выравнивание : Разделение по промежуткам
Продолжительность промежутка : 42 мс. (1,00 видеокадр)
Время предзагрузки промежутка : 500 мс.
ServiceKind/String : Complete Main
ТрейлерБЕЗ РЕКЛАМЫ!
Download / Скачать

Хотите скачать бесплатно? Зарегистрируйтесь на сайте (ссылка на регистрацию). Pirat.ca - самый быстрый торрент трекер в рунете!

Как скачивать  ·   Что такое торрент  ·   Рейтинг и ограничения

zmaksimz

Корсар

Пост 05-Фев-2018 13:42 (спустя 4 часа)

[Q] 

Спасибо. Наконец-то хорошее качество Супер!
[Профиль]  [ЛС] 

fishman

Флибустьер

Пост 05-Фев-2018 20:09 (спустя 6 часов)

[Q] 

Спасибо!!! Лови бочку

_________________
|___|___|___|___|___|___|___|__|__
__|__|__|_Биться головой_|___|___|
|___|___|___|__сюда!!___|___|__|__
__|___|___|___|___|___|___|__|__
[Профиль]  [ЛС] 

clark

Флибустьер

Пост 06-Фев-2018 21:23 (спустя 1 день 1 час)

[Q] 

спасибо красава!!!

_________________
Последним смеётся тот, кто стреляет первым.
[Профиль]  [ЛС] 

VKValiant

Лоцман

Пост 09-Фев-2018 12:54 (спустя 2 дня 15 часов)

[Q] 

Спасибо!!!!! Посмотрю хоть нормально!
[Профиль]  [ЛС] 

ketzer

Корсар

Пост 09-Фев-2018 23:12 (спустя 10 часов)

[Q] 

Проходной. Наверное, никто уже не хотел снимать про Тора, отдали замечательному Тайке, но он снял камерно, без размаха.
[Профиль]  [ЛС] 

Артур

Шкипер

Пост 11-Фев-2018 02:58 (спустя 1 день 3 часа)

[Q] 

Автору респект!!! Спасибо!!! Фильм понравился
[Профиль]  [ЛС] 

Sector_X

311

Пост 12-Фев-2018 15:26 (спустя 1 день 12 часов)

[Q] 

Спасибо!!! Супер!

_________________

[Профиль]  [ЛС] 

[email protected]lub

Юнга

Пост 13-Фев-2018 18:43 (спустя 1 день 3 часа)

[Q] 

[GVideo][GVideo][flash] Лови бочку [/flash][/GVideo][/GVideo]
[Профиль]  [ЛС] 

jenya-kopew

Корсар

Пост 13-Фев-2018 22:21 (спустя 3 часа)

[Q] 

Пародия тора на самого тора
[Профиль]  [ЛС] 

Полтос

Гроза морей

Пост 18-Фев-2018 22:14 (спустя 4 дня)

[Q] 

Впервые за долгий срок увидел годный к просмотру фильм про супергроев Марвел.
Всем качать!!! Мне понравилось

_________________
Первый закон Прапорщика: Всё что поднимаемо - относительно!)
[Профиль]  [ЛС] 

Ливень

Корсар

Пост 17-Апр-2018 19:06 (спустя 1 месяц 26 дней)

[Q] 

С юморком, без особого смысла, как всегда ...Марвелл....посмотрел и забыл. Рекомендую)))))
[Профиль]  [ЛС] 

_8165

Корсар

Пост 20-Апр-2018 20:41 (спустя 3 дня)

[Q] 

Спасибо, Супер!
[Профиль]  [ЛС] 
Показать сообщения:    
Ответить на тему

Текущее время: Сегодня 16:45

Часовой пояс: GMT + 4



Вы не можете начинать темы
Вы не можете отвечать на сообщения
Вы не можете редактировать свои сообщения
Вы не можете удалять свои сообщения
Вы не можете голосовать в опросах
Вы не можете прикреплять файлы к сообщениям
Вы не можете скачивать файлы

Майнать ▼