[Jolly Roger] От заката до рассвета / From Dusk Till Dawn (Роберт Родригес / Robert Rodriguez) [1995 г., ужасы, фэнтези, боевик, триллер, комедия, криминал, BDRip-AVC] MVO + VO [Дмитрий «Гоблин» Пучков] + Original (Eng)

Ответить на тему
 
Автор
Сообщение

Пост 15-Ноя-2012 00:55

[Q] 

zyyx

-От заката до рассвета / From Dusk Till Dawn
«How far can Too Far go?»
-- Год выпуска: 1995 г.
Производство: США
Жанр: ужасы, фэнтези, боевик, триллер, комедия, криминал
Продолжительность: 01:47:50
Перевод: Профессиональный (многоголосый, закадровый)
Перевод: Профессиональный (одноголосый закадровый, Дмитрий «Гоблин» Пучков)
Оригинальный аудиопоток: Aнглийский
Субтитры: Русские, английские
Режиссер: Роберт Родригес / Robert Rodriguez
В ролях: Харви Кейтель, Джордж Клуни, Квентин Тарантино, Джульетт Льюис, Эрнест Лью, Сальма Хайек, Чич Марин, Дэнни Трехо, Том Савини, Фред Уильямсон
Описание: Спасаясь от полиции после ограбления банка, два брата — грабителя берут в заложники священника и его детей. Около американской границы они решают провести ночь в придорожном баре. Тут-то всё и начинается…-- --Качество видео: BDRip-AVC
Формат видео: MKV
Видео кодек: H.264
Аудио кодек: AC3
Видео: 1024x576, 23.976fps, 1746 Kbps
Аудио: 48.0 KHz, 6 ch, 384 Kbps Многоголосый
Аудио: 48.0 KHz, 6 ch, 384 Kbps Дмитрий «Гоблин» Пучков
Аудио: 48.0 KHz, 6 ch, 384 Kbps Оригинал
General
Unique ID : 216123586968634028514029029424709484519 (0xA297E3874A803ECBBE8EF0C88E1FBFE7)
Complete name : H:\JRG\From.Dusk.Till.Dawn.1995.h264.BDRip-AVC.JRG.mkv
Format : Matroska
Format version : Version 2
File size : 2.18 GiB
Duration : 2h 6mn
Overall bit rate : 2 468 Kbps
Movie name : From Dusk Till Dawn (1995) - The Jolly Roger by Pirat.Ca [zyyx]
Encoded date : UTC 2012-11-14 23:36:28
Writing application : mkvmerge v4.9.1 ('Ich will') сборка от Aug 10 2011 09:31:20
Writing library : libebml v1.2.1 + libmatroska v1.2.0
Video
ID : 1
Format : AVC
Format/Info : Advanced Video Codec
Format profile : High@L4.1
Format settings, CABAC : Yes
Format settings, ReFrames : 11 frames
Codec ID : V_MPEG4/ISO/AVC
Duration : 2h 6mn
Bit rate : 1 267 Kbps
Nominal bit rate : 1 746 Kbps
Width : 1 024 pixels
Height : 576 pixels
Display aspect ratio : 16:9
Frame rate : 23.976 fps
Color space : YUV
Chroma subsampling : 4:2:0
Bit depth : 8 bits
Scan type : Progressive
Bits/(Pixel*Frame) : 0.090
Stream size : 1.12 GiB (51%)
Title : JRG
Writing library : x264 core 116 r2074 2641b9e
Encoding settings : cabac=1 / ref=11 / deblock=1:-1:-1 / analyse=0x3:0x133 / me=umh / subme=11 / psy=1 / psy_rd=1.00:0.10 / mixed_ref=1 / me_range=48 / chroma_me=1 / trellis=2 / 8x8dct=1 / cqm=0 / deadzone=21,11 / fast_pskip=0 / chroma_qp_offset=-3 / threads=8 / sliced_threads=0 / nr=0 / decimate=1 / interlaced=0 / bluray_compat=0 / constrained_intra=0 / bframes=8 / b_pyramid=2 / b_adapt=2 / b_bias=0 / direct=3 / weightb=1 / open_gop=0 / weightp=2 / keyint=250 / keyint_min=23 / scenecut=40 / intra_refresh=0 / rc_lookahead=50 / rc=2pass / mbtree=1 / bitrate=1746 / ratetol=1.0 / qcomp=0.60 / qpmin=0 / qpmax=69 / qpstep=4 / cplxblur=20.0 / qblur=0.5 / ip_ratio=1.40 / aq=1:1.00
Language : English
Default : Yes
Forced : No
Audio #1
ID : 2
Format : AC-3
Format/Info : Audio Coding 3
Mode extension : CM (complete main)
Format settings, Endianness : Big
Codec ID : A_AC3
Duration : 2h 6mn
Bit rate mode : Constant
Bit rate : 384 Kbps
Channel(s) : 6 channels
Channel positions : Front: L C R, Side: L R, LFE
Sampling rate : 48.0 KHz
Bit depth : 16 bits
Compression mode : Lossy
Stream size : 348 MiB (16%)
Language : Russian
Default : Yes
Forced : No
Audio #2
ID : 3
Format : AC-3
Format/Info : Audio Coding 3
Mode extension : CM (complete main)
Format settings, Endianness : Big
Codec ID : A_AC3
Duration : 2h 6mn
Bit rate mode : Constant
Bit rate : 384 Kbps
Channel(s) : 6 channels
Channel positions : Front: L C R, Side: L R, LFE
Sampling rate : 48.0 KHz
Bit depth : 16 bits
Compression mode : Lossy
Stream size : 348 MiB (16%)
Language : Russian
Default : No
Forced : No
Audio #3
ID : 4
Format : AC-3
Format/Info : Audio Coding 3
Mode extension : CM (complete main)
Format settings, Endianness : Big
Codec ID : A_AC3
Duration : 2h 6mn
Bit rate mode : Constant
Bit rate : 384 Kbps
Channel(s) : 6 channels
Channel positions : Front: L C R, Side: L R, LFE
Sampling rate : 48.0 KHz
Bit depth : 16 bits
Compression mode : Lossy
Stream size : 348 MiB (16%)
Language : English
Default : No
Forced : No
Text #1
ID : 5
Format : UTF-8
Codec ID : S_TEXT/UTF8
Codec ID/Info : UTF-8 Plain Text
Language : Russian
Default : Yes
Forced : No
Text #2
ID : 6
Format : UTF-8
Codec ID : S_TEXT/UTF8
Codec ID/Info : UTF-8 Plain Text
Language : Russian
Default : No
Forced : No
Text #3
ID : 7
Format : UTF-8
Codec ID : S_TEXT/UTF8
Codec ID/Info : UTF-8 Plain Text
Language : English
Default : No
Forced : No














--
Download / Скачать

Хотите скачать бесплатно? Зарегистрируйтесь на сайте (ссылка на регистрацию). Pirat.ca - самый быстрый торрент трекер в рунете!

Как скачивать  ·   Что такое торрент  ·   Рейтинг и ограничения

Metalheart

Гроза морей

Пост 15-Ноя-2012 08:59 (спустя 8 часов)

[Q] 


_________________
[Профиль]  [ЛС] 

alex_dry

Гроза морей

Пост 01-Дек-2012 21:12 (спустя 16 дней)

[Q] 

Шедевры типа "От заката до рассвета" смотреть только в переводе Дмитрия «Гоблина» Пучкова!!!Правильный перевод - что может быть лучше?
[Профиль]  [ЛС] 

UncleFather

Легенда

Пост 23-Мар-2013 16:52 (спустя 3 месяца 21 день)

[Q] 


_________________
Одни боялись Пью, другие - Билли Бонса, а меня... меня боялся сам Флинт
[Профиль]  [ЛС] 

Прораб

Легенда

Пост 28-Авг-2013 21:32 (спустя 5 месяцев 5 дней)

[Q] 

Спасибо!!!
[Профиль]  [ЛС] 

Лёнчик-80

Морской Волк

Пост 09-Янв-2014 19:52 (спустя 4 месяца 11 дней)

[Q] 

!COOL! Спасибо!!! ПОВСПОМИНАЕМ
[Профиль]  [ЛС] 

UncleFather

Легенда

Пост 22-Янв-2014 20:41 (спустя 13 дней)

[Q] 

Вот Родригес молодец - никогда особо сценарием не заморачивается.
А если б снял "Пикник на обочине", например - поди ж шедевр бы получился

_________________
Одни боялись Пью, другие - Билли Бонса, а меня... меня боялся сам Флинт
[Профиль]  [ЛС] 

dambrina

Флибустьер

Пост 07-Янв-2015 02:08 (спустя 11 месяцев 15 дней)

[Q] 

Спасибо!!!
[Профиль]  [ЛС] 

PPA55

Корсар

Пост 30-Ноя-2015 13:35 (спустя 10 месяцев 23 дня)

[Q] 

Спасибо за перевод Гоблина!
[Профиль]  [ЛС] 

avangard-krsk2016

Штурман

Пост 03-Ноя-2017 10:16 (спустя 1 год 11 месяцев)

[Q] 

Благодарю за хороший фильм!
[Профиль]  [ЛС] 

Mustafa Sazont

Корсар

Пост 22-Апр-2018 18:04 (спустя 5 месяцев 19 дней)

[Q] 

Великолепный фильм! А танец Сальмы Хайек просто шедевр!
https://www.youtube.com/watch?v=Qz4F2TtMNZA
[Профиль]  [ЛС] 
Показать сообщения:    
Ответить на тему

Текущее время: Сегодня 04:57

Часовой пояс: GMT + 4



Вы не можете начинать темы
Вы не можете отвечать на сообщения
Вы не можете редактировать свои сообщения
Вы не можете удалять свои сообщения
Вы не можете голосовать в опросах
Вы не можете прикреплять файлы к сообщениям
Вы не можете скачивать файлы

Майнать ▼