Мир Дикого запада / Westworld / Сезон: 2 / Серии: 1-10 из 10 (Ричард Дж. Льюис / Richard J. Lewis) [2018, США, фантастика, драма, детектив, вестерн, WEB-DLRip] DUB (Amedia) + Original + Sub (rus, eng)

Ответить на тему
 
Автор
Сообщение

Пост 23-Апр-2018 23:23

[Q] 

kugesan

Мир Дикого запада / Westworld
«Здесь начинается жизнь»
- Год выпуска: 2018
Страна: США
Жанр: Драма, Фантастика, Вестерн
Продолжительность: 01:00:00-Премьера (мир): 30 сентября 2016, ...
Премьера (РФ): 3 октября 2016
Перевод: Профессиональный (дублированный) Amedia (Кравец)-Режиссёр: Ричард Дж. Льюис / Richard J. Lewis, Винченцо Натали / Vincenzo Natali, Джонатан Нолан / Jonathan Nolan
В ролях: Эван Рэйчел Вуд, Тэнди Ньютон, Джеффри Райт, Джеймс Марсден, Эд Харрис, Талула Райли, Энтони Хопкинс, Эрик Шэкелфорд, Дэниэл ТуФизерс, Люк Хемсворт-Описание:
В футуристическом парке развлечений "Мир Дикого Запада" специально сконструированные андроиды выполняют любые прихоти посетителей, чтобы те чувствовали безнаказанность и полную свободу действий. Если робота убили - не беда, техники его починят, сотрут память и снова поставят в строй, навстречу новому дню и новым людским прихотям. Но оказывается, что далеко не все роботы теряют воспоминания.-     -Ссылка на предыдущие и альтернативные раздачи-Качество: WEB-DLRip
Формат: AVI
Видео: XviD, 720x400, 23.976 fps, ~1500 kbps
Аудио #1: 48 kHz, MPEG Layer 3, 2 ch, ~128.00 kbps | Rus
Аудио #2: 48 kHz, MPEG Layer 3, 2 ch, ~128.00 kbps | Eng
Субтитры: Русские (Amedia), Английские
Реклама: Отсутствует
-
Код:
01. Путешествие в ночь
02. Воссоединение
03. Доблесть и фортуна
04. Загадка сфинкса
05. Танец Акане
06. Космическая фаза
07. Свежеватели
08. Помни
09. Точка схода
10. Пассажиры
-
Код:
Format                      : AVI
Format/Info                 : Audio Video Interleave
File size                   : 954 MiB
Duration                    : 1 h 14 min
Overall bit rate            : 1 787 kb/s
Writing application         : VirtualDubMod 1.5.10.2 (build 2540/release)
Writing library             : VirtualDubMod build 2540/release
Video
ID                          : 0
Format                      : MPEG-4 Visual
Format profile              : Advanced Simple@L5
Format settings             : BVOP2 / Custom Matrix
Format settings, BVOP       : 2
Format settings, QPel       : No
Format settings, GMC        : No warppoints
Format settings, Matrix     : Custom
Codec ID                    : XVID
Codec ID/Hint               : XviD
Duration                    : 1 h 14 min
Bit rate                    : 1 517 kb/s
Width                       : 720 pixels
Height                      : 400 pixels
Display aspect ratio        : 16:9
Frame rate                  : 23.976 (24000/1001) FPS
Color space                 : YUV
Chroma subsampling          : 4:2:0
Bit depth                   : 8 bits
Scan type                   : Progressive
Compression mode            : Lossy
Bits/(Pixel*Frame)          : 0.220
Stream size                 : 810 MiB (85%)
Writing library             : XviD 73
Audio #1
ID                          : 1
Format                      : MPEG Audio
Format version              : Version 1
Format profile              : Layer 3
Format settings             : Joint stereo / MS Stereo
Codec ID                    : 55
Codec ID/Hint               : MP3
Duration                    : 1 h 14 min
Bit rate mode               : Constant
Bit rate                    : 128 kb/s
Channel(s)                  : 2 channels
Sampling rate               : 48.0 kHz
Compression mode            : Lossy
Stream size                 : 68.4 MiB (7%)
Alignment                   : Split accross interleaves
Interleave, duration        : 42  ms (1.00 video frame)
Interleave, preload duratio : 500  ms
Audio #2
ID                          : 2
Format                      : MPEG Audio
Format version              : Version 1
Format profile              : Layer 3
Format settings             : Joint stereo / MS Stereo
Codec ID                    : 55
Codec ID/Hint               : MP3
Duration                    : 1 h 14 min
Bit rate mode               : Constant
Bit rate                    : 128 kb/s
Channel(s)                  : 2 channels
Sampling rate               : 48.0 kHz
Compression mode            : Lossy
Stream size                 : 68.4 MiB (7%)
Alignment                   : Split accross interleaves
Interleave, duration        : 42  ms (1.00 video frame)
Interleave, preload duratio : 500  ms
Когда раздача ведётся путём добавления новых серий, при каждом добавлении создётся новый торрент. Чтобы начать докачку новой серии, пользователям необходимо сделать следующее:
(1) остановить скачивание,
(2) удалить старый торрент у себя из клиента (старые серии удалять не надо),
(3) скачать новый торрент и запустить его у себя в клиенте вместо старого, при этом указать клиенту путь в старую папку, куда и должно происходить скачивание новых серий.
Ваш клиент при этом должен произвести хеширование (проверку) старой папки (если не производит сам - помогите ему сделать это), и будет докачивать только те серии, которых у вас ещё нет. Старые серии при этом не удаляются, а продолжают раздаваться!
Eсли вы уже удалили старые серии, то предотвратить повторную закачку старых серий можно, отжав галочку в соответсвующих местах при запуске нового торрента. По возможности, желательно не удалять старые серии как можно дольше, чтобы релизёр не столько продолжал раздавать старые серии, а смог сконцентрироваться на новых.
Download / Скачать

Хотите скачать бесплатно? Зарегистрируйтесь на сайте (ссылка на регистрацию). Pirat.ca - самый быстрый торрент трекер в рунете!

Как скачивать  ·   Что такое торрент  ·   Рейтинг и ограничения



Последний раз редактировалось: kugesan (2018-07-06 14:16), всего редактировалось 7 раз(а)

Region-89

Легенда

552

Пост 24-Апр-2018 19:01 (спустя 19 часов)

[Q] 

не плохо! aa а когда от Алексфильм будет озвучка? af

_________________
[Профиль]  [ЛС] 

SeaSide

Штурман

Пост 29-Апр-2018 02:21 (спустя 4 дня)

[Q] 

Вау, продолжение, оч круто. Посмотрел серию, заинтриговало как будет дальше все развиваться.
[Профиль]  [ЛС] 

Q33-NY

Шкипер

Пост 11-Май-2018 23:46 (спустя 12 дней)

[Q] 

уже 2 и 3я серия вышли.. а тут нет
[Профиль]  [ЛС] 

studentUA

Корсар

56

Пост 05-Июн-2018 14:44 (спустя 24 дня)

[Q] 

седьмая серия годнота
[Профиль]  [ЛС] 

v230v

Корсар

Пост 05-Июн-2018 16:03 (спустя 1 час 18 минут)

[Q] 

спасибо,посмотрим!!!
[Профиль]  [ЛС] 

ku_vol

Корсар

Пост 10-Июн-2018 15:29 (спустя 4 дня)

[Q] 

создатели фильма во втором сезоне перестарались с хаосом, но посмотрим что будет дальше Спасибо!!!
[Профиль]  [ЛС] 
Показать сообщения:    
Ответить на тему

Текущее время: Сегодня 20:39

Часовой пояс: GMT + 4



Вы не можете начинать темы
Вы не можете отвечать на сообщения
Вы не можете редактировать свои сообщения
Вы не можете удалять свои сообщения
Вы не можете голосовать в опросах
Вы не можете прикреплять файлы к сообщениям
Вы не можете скачивать файлы

Майнать ▼