Заключённый Икс / Prisoner X (Гурав Сет / Gaurav Seth) [2016 г., фантастика, триллер, WEB-DLRip] MVO

Ответить на тему
 
Автор
Сообщение

Пост 10-Июн-2017 19:09

[Q] 

ara1205

-Заключённый Икс / Prisoner X-- Производство: Канада
Год выпуска: 2016 г.
Жанр: фантастика, триллер
Продолжительность: 01:29:11
Перевод: Любительский (многоголосый, закадровый) [Синема УС]-Режиссёр: Гурав Сет / Gaurav Seth-В ролях: Джулиан Ричингс, Мишель Нолден, Дэймон Рунян, Найджел Беннетт, Романо Орцари, Джессика Греко, Дрю Вигевер, Джанпаоло Венута-Описание: Планета погрузилась в пучину хаоса, войны и раздора. Агент АНБ Кармэн Риз прибывает на секретную подземную базу, чтобы допросить террориста, который умеет путешествовать во времени. Агент считает, что именно он виновен во всём происходящем...- -Качество видео: WEB-DLRip
Контейнер: AVI
Видео кодек: XviD
Аудио кодек: AC3
Видео: 720x400, 23,976 fps, 1788 kbps avg, 0.259 bit/pixel
Аудио: 48 kHz, AC3 Dolby Digital, 2 ch, ~384 kbps
Cубтитры: отсутствуют-
Общее
Полное имя : C:\Users\Admin\Pictures\Заключённый Икс\Prisoner.X.2016.P.WEB-DLRip.14OOMB.avi
Формат : AVI
Формат/Информация : Audio Video Interleave
Размер файла : 1,36 Гбайт
Продолжительность : 1 ч. 29 м.
Общий поток : 2182 Кбит/сек
Программа кодирования : VirtualDubMod 1.5.10.2 (build 2540/release)
Библиотека кодирования : VirtualDubMod build 2540/release
Видео
Идентификатор : 0
Формат : MPEG-4 Visual
Профиль формата : Advanced [email protected]
Параметр BVOP формата : 2
Параметр QPel формата : Нет
Параметр GMC формата : Без точки перехода
Параметр матрицы формата : Default (MPEG)
Идентификатор кодека : XVID
Идентификатор кодека/Подсказка : XviD
Продолжительность : 1 ч. 29 м.
Битрейт : 1788 Кбит/сек
Ширина : 720 пикселей
Высота : 400 пикселей
Соотношение сторон : 16:9
Частота кадров : 23,976 кадра/сек
Цветовое пространство : YUV
Субдискретизация насыщенности : 4:2:0
Битовая глубина : 8 бит
Тип развёртки : Прогрессивная
Метод сжатия : С потерями
Бит/(Пиксели*Кадры) : 0.259
Размер потока : 1,11 Гбайт (82%)
Библиотека кодирования : XviD 1.2.1 (UTC 2008-12-04)
Аудио
Идентификатор : 1
Формат : AC-3
Формат/Информация : Audio Coding 3
Расширение режима : CM (complete main)
Параметр Endianness формата : Big
Идентификатор кодека : 2000
Продолжительность : 1 ч. 29 м.
Вид битрейта : Постоянный
Битрейт : 384 Кбит/сек
Каналы : 2 канала
Расположение каналов : Front: L R
Частота : 48,0 КГц
Битовая глубина : 16 бит
Метод сжатия : С потерями
Размер потока : 245 Мбайт (18%)
Выравнивание : Разделение по промежуткам
Продолжительность промежутка : 42 мс. (1,00 видеокадр)
Время предзагрузки промежутка : 500 мс.
-
-ВНИМАНИЕ!!! В ВИДЕОФАЙЛЕ ПРИСУТСТВУЕТ РЕКЛАМА!!!-
Download / Скачать

Хотите скачать бесплатно? Зарегистрируйтесь на сайте (ссылка на регистрацию). Pirat.ca - самый быстрый торрент трекер в рунете!

Как скачивать  ·   Что такое торрент  ·   Рейтинг и ограничения

lqynaoacepkp

Корсар

236

Пост 10-Июн-2017 22:12 (спустя 3 часа)

[Q] 

Кто смотрел - Как фильм?
[Профиль]  [ЛС] 

pvm

Флибустьер

Пост 10-Июн-2017 23:13 (спустя 1 час 1 минута)

[Q] 

Интересно:
Фильм скачан:0 раз
Поблагодарили:9
Сидов:23
[Профиль]  [ЛС] 

Vasylii1

Штурман

Пост 11-Июн-2017 01:29 (спустя 2 часа 15 минут)

[Q] 

неплохой. с твистом
[Профиль]  [ЛС] 

realleo

Корсар

Пост 11-Июн-2017 02:43 (спустя 1 час 13 минут)

[Q] 

редкостное УГ :( весь фильм снят в подвале в ДВУХ комнатах! никакой графики, никакого экшона, тупо весь фильм пиз%ят о путешествиях во времени (причем на уровне дилетантов с выдумкой кучи фигни, о которой никто ничего не слышал), плюс каких то маджахетов примешали (ни пойми к чему) плюс актеры УГ в квадрате. вообщем, трэшак без каких либо но и если, не тратьте своё время
[Профиль]  [ЛС] 

diafano

Лоцман

Пост 12-Июн-2017 22:13 (спустя 1 день 19 часов)

[Q] 

799514редкостное УГ :(
ППКС.
[Профиль]  [ЛС] 

undo02

Штурман

Пост 16-Июн-2017 21:22 (спустя 3 дня)

[Q] 

Твист так себе, но я досмотрел. Разок для разнообразия потянет
На любителя
[Профиль]  [ЛС] 

лезвие

1353

Пост 17-Июн-2017 17:29 (спустя 20 часов)

[Q] 

799514причем на уровне дилетантов
А ты профессионал в этом деле?
[Профиль]  [ЛС] 

Полтос

Гроза морей

Пост 18-Июн-2017 19:25 (спустя 1 день 1 час)

[Q] 

Не осилил, заснул. Зато выспался хорошо!)
Трафик потрачен зря!

_________________
Первый закон Прапорщика: Всё что поднимаемо - относительно!)
[Профиль]  [ЛС] 

Андря

8619

Пост 19-Июн-2017 01:08 (спустя 5 часов)

[Q] 

800107Не осилил, заснул. Зато выспался хорошо!)
самый достойный комент

_________________
Като Тешекика
[Профиль]  [ЛС] 

andreiex

Морской Волк

Пост 21-Июн-2017 16:19 (спустя 2 дня 15 часов)

[Q] 

Убедили - не качаю. Релизеру спасибо за труды.
[Профиль]  [ЛС] 

Towelie

Корсар

13

Пост 25-Июн-2017 21:38 (спустя 4 дня)

[Q] 

вот теперь не знаю - качать или нет?
[Профиль]  [ЛС] 

usya5

Корсар

Пост 27-Июн-2017 00:05 (спустя 1 день 2 часа)

[Q] 

800657вот теперь не знаю - качать или нет?
такие же раздумья, но, наверное, нет.
[Профиль]  [ЛС] 

lightmaster

Гроза морей

Пост 28-Июн-2017 20:00 (спустя 1 день 19 часов)

[Q] 

Так этож Глобал Азилум?
[Профиль]  [ЛС] 

lexaspirit

Пост 24-Апр-2018 14:09 (спустя 9 месяцев 25 дней)

[Q] 

В принципе на разок посмотреть можно. Смысл к сюжете присутствует

_________________
-------------------- ----------------------
[Профиль]  [ЛС] 
Показать сообщения:    
Ответить на тему

Текущее время: Сегодня 16:33

Часовой пояс: GMT + 4



Вы не можете начинать темы
Вы не можете отвечать на сообщения
Вы не можете редактировать свои сообщения
Вы не можете удалять свои сообщения
Вы не можете голосовать в опросах
Вы не можете прикреплять файлы к сообщениям
Вы не можете скачивать файлы

Майнать ▼