Изгой-один: Звёздные войны. Истории / Rogue One (Гарет Эдвардс / Gareth Edwards) [2016, фантастика, боевик, приключения, BDRip-AVC][Локализованный видеоряд] Dub [Лицензия] + Original (Eng) + Sub (Rus, Eng)

Ответить на тему
 
Автор
Сообщение

Пост 16-Янв-2018 11:36

[Q] 

aleksey99

--Изгой-один: Звёздные войны. Истории / Rogue One: A Star Wars Story--«Мятеж с надеждой в сердце»-- Производство: США, Великобритания / Lucasfilm Ltd., Walt Disney Studios Motion Pictures
Год выпуска: 2016 г.
Жанр: фантастика, боевик, приключения
Продолжительность: 02:13:58--Мировая премьера: 10 декабря 2016
Российская премьера: 15 декабря 2016, «WDSSPR»
Цифровой релиз: 24 марта 2017, «Sony Pictures Home Entertainment»--Перевод: Профессиональный (полное дублирование) [Лицензия]
Оригинальный аудиопоток: английский--Режиссер: Гарет Эдвардс / Gareth Edwards--В ролях: Фелисити Джонс, Диего Луна, Алан Тьюдик, Донни Йен, Цзян Вэнь, Бен Мендельсон, Гай Генри, Форест Уитакер, Риз Ахмед, Мадс Миккельсен--Описание: Сопротивление собирает отряд для выполнения особой миссии — надо выкрасть чертежи самого совершенного и смертоносного оружия Империи. Возглавляет бойцов неуправляемая и бесстрашная Джин Эрсо, у которой в этом самоубийственном задании есть и личные мотивы. Не всем суждено вернуться домой, но герои готовы к этому, ведь на кону судьба Галактики.-- --Качество видео: BDRip-AVC
Контейнер: MKV
Видео кодек: AVC/H.264
Аудио кодек: AC3
Видео: AVC, 1088x456 (2,40:1), 2215 kbps, 23,976 fps, 0.186 bpp
Аудио 1: 48 kHz, AC3 Dolby Digital, 3/2 (L,C,R,l,r) + LFE ch, ~448 kbps RUS
Аудио 2: 48 kHz, AC3 Dolby Digital, 3/2 (L,C,R,l,r) + LFE ch, ~448 kbps ENG
Cубтитры: русские (полные + форс.), английские (Forced + Full + SDH + SDH-Colored).
Общее
Уникальный идентификатор : 238024046592469012128158158282760872723 (0xB311C38DBFB4EAC6A7788950DCBF6313)
Полное имя : H:\Torrent2\Izgoy.Odin.Zvezdnyie.Voyny.Istorii.2016.DUAL.BDRip.x264.mkv
Формат : Matroska
Версия формата : Version 4 / Version 2
Размер файла : 2,91 Гбайт
Продолжительность : 2 ч. 13 м.
Общий поток : 3114 Кбит/сек
Название фильма : Rogue One: A Star Wars Story (2016)
Дата кодирования : UTC 2017-04-07 03:45:30
Программа кодирования : mkvmerge v5.9.0 ('On The Loose') built on Dec 15 2012 16:39:58
Библиотека кодирования : libebml v1.3.0 + libmatroska v1.4.0
Видео
Идентификатор : 1
Формат : AVC
Формат/Информация : Advanced Video Codec
Профиль формата : [email protected]
Настройки формата : CABAC / 10 Ref Frames
Параметр CABAC формата : Да
Параметр RefFrames формата : 10 кадров
Идентификатор кодека : V_MPEG4/ISO/AVC
Продолжительность : 2 ч. 13 м.
Битрейт : 2215 Кбит/сек
Ширина : 1088 пикселей
Высота : 456 пикселей
Соотношение сторон : 2,40:1
Режим частоты кадров : Постоянный
Частота кадров : 23,976 (24000/1001) кадра/сек
Цветовое пространство : YUV
Субдискретизация насыщенности : 4:2:0
Битовая глубина : 8 бит
Тип развёртки : Прогрессивная
Бит/(Пиксели*Кадры) : 0.186
Размер потока : 2,02 Гбайт (69%)
Заголовок : potroks
Библиотека кодирования : x264 core 146 r2538 121396c
Настройки программы : cabac=1 / ref=10 / deblock=1:-2:-2 / analyse=0x3:0x113 / me=umh / subme=11 / psy=1 / psy_rd=1.00:0.05 / mixed_ref=1 / me_range=56 / chroma_me=1 / trellis=2 / 8x8dct=1 / cqm=0 / deadzone=21,11 / fast_pskip=0 / chroma_qp_offset=-3 / threads=9 / lookahead_threads=2 / sliced_threads=0 / nr=0 / decimate=0 / interlaced=0 / bluray_compat=0 / constrained_intra=0 / bframes=11 / b_pyramid=2 / b_adapt=2 / b_bias=0 / direct=3 / weightb=1 / open_gop=0 / weightp=2 / keyint=240 / keyint_min=23 / scenecut=40 / intra_refresh=0 / rc_lookahead=60 / rc=2pass / mbtree=0 / bitrate=2215 / ratetol=1.0 / qcomp=0.70 / qpmin=0 / qpmax=69 / qpstep=4 / cplxblur=20.0 / qblur=0.5 / vbv_maxrate=14000 / vbv_bufsize=14000 / nal_hrd=none / filler=0 / ip_ratio=1.40 / pb_ratio=1.30 / aq=1:0.80
Язык : English
Default : Да
Forced : Нет
Аудио #1
Идентификатор : 2
Формат : AC-3
Формат/Информация : Audio Coding 3
Идентификатор кодека : A_AC3
Продолжительность : 2 ч. 13 м.
Вид битрейта : Постоянный
Битрейт : 448 Кбит/сек
Каналы : 6 каналов
Расположение каналов : Front: L C R, Side: L R, LFE
Частота : 48,0 КГц
Частота кадров : 31,250 кадров/сек (1536 SPF)
Битовая глубина : 16 бит
Метод сжатия : С потерями
Размер потока : 429 Мбайт (14%)
Заголовок : Dub | DD 5.1 @ 448 kbps - Blu-ray CEE
Язык : Russian
ServiceKind/String : Complete Main
Default : Да
Forced : Нет
Аудио #2
Идентификатор : 3
Формат : AC-3
Формат/Информация : Audio Coding 3
Идентификатор кодека : A_AC3
Продолжительность : 2 ч. 13 м.
Вид битрейта : Постоянный
Битрейт : 448 Кбит/сек
Каналы : 6 каналов
Расположение каналов : Front: L C R, Side: L R, LFE
Частота : 48,0 КГц
Частота кадров : 31,250 кадров/сек (1536 SPF)
Битовая глубина : 16 бит
Метод сжатия : С потерями
Размер потока : 429 Мбайт (14%)
Заголовок : Original | DD 5.1 @ 448 kbps
Язык : English
ServiceKind/String : Complete Main
Default : Нет
Forced : Нет
Текст #1
Идентификатор : 4
Формат : UTF-8
Идентификатор кодека : S_TEXT/UTF8
Идентификатор кодека/Информация : UTF-8 Plain Text
Заголовок : Forced
Язык : Russian
Default : Да
Forced : Нет
Текст #2
Идентификатор : 5
Формат : UTF-8
Идентификатор кодека : S_TEXT/UTF8
Идентификатор кодека/Информация : UTF-8 Plain Text
Заголовок : iTunes
Язык : Russian
Default : Нет
Forced : Нет
Текст #3
Идентификатор : 6
Формат : UTF-8
Идентификатор кодека : S_TEXT/UTF8
Идентификатор кодека/Информация : UTF-8 Plain Text
Заголовок : Forced
Язык : English
Default : Нет
Forced : Нет
Текст #4
Идентификатор : 7
Формат : UTF-8
Идентификатор кодека : S_TEXT/UTF8
Идентификатор кодека/Информация : UTF-8 Plain Text
Заголовок : Full
Язык : English
Default : Нет
Forced : Нет
Текст #5
Идентификатор : 8
Формат : UTF-8
Идентификатор кодека : S_TEXT/UTF8
Идентификатор кодека/Информация : UTF-8 Plain Text
Заголовок : SDH
Язык : English
Default : Нет
Forced : Нет
Текст #6
Идентификатор : 9
Формат : UTF-8
Идентификатор кодека : S_TEXT/UTF8
Идентификатор кодека/Информация : UTF-8 Plain Text
Заголовок : SDH-Colored
Язык : English
Default : Нет
Forced : Нет
Меню
00:00:00.000 : :Глава 1
00:02:34.654 : :Глава 2
00:07:46.465 : :Глава 3
00:08:42.813 : :Глава 4
00:11:04.622 : :Глава 5
00:12:21.198 : :Глава 6
00:13:41.153 : :Глава 7
00:17:19.913 : :Глава 8
00:20:09.541 : :Глава 9
00:21:54.771 : :Глава 10
00:23:47.092 : :Глава 11
00:24:31.386 : :Глава 12
00:26:53.444 : :Глава 13
00:27:46.623 : :Глава 14
00:30:37.293 : :Глава 15
00:33:53.406 : :Глава 16
00:37:11.270 : :Глава 17
00:42:30.089 : :Глава 18
00:47:16.124 : :Глава 19
00:51:04.144 : :Глава 20
00:52:23.723 : :Глава 21
00:55:53.266 : :Глава 22
00:59:48.251 : :Глава 23
01:02:07.807 : :Глава 24
01:05:25.504 : :Глава 25
01:10:24.094 : :Глава 26
01:12:49.531 : :Глава 27
01:16:28.458 : :Глава 28
01:19:04.322 : :Глава 29
01:21:55.160 : :Глава 30
01:23:25.667 : :Глава 31
01:25:58.986 : :Глава 32
01:27:34.957 : :Глава 33
01:29:57.308 : :Глава 34
01:31:53.841 : :Глава 35
01:34:18.736 : :Глава 36
01:36:07.511 : :Глава 37
01:37:48.237 : :Глава 38
01:40:27.604 : :Глава 39
01:42:44.074 : :Глава 40
01:45:26.778 : :Глава 41
01:47:55.010 : :Глава 42
01:50:31.416 : :Глава 43
01:53:28.885 : :Глава 44
01:55:46.272 : :Глава 45
01:59:23.447 : :Глава 46
02:01:11.347 : :Глава 47
02:03:15.596 : :Глава 48
02:05:42.117 : :Глава 49
02:13:57.028 : :Глава 50
Трейлер
Download / Скачать

Хотите скачать бесплатно? Зарегистрируйтесь на сайте (ссылка на регистрацию). Pirat.ca - самый быстрый торрент трекер в рунете!

Как скачивать  ·   Что такое торрент  ·   Рейтинг и ограничения

exelero07

Флибустьер

Пост 07-Мар-2018 00:19 (спустя 1 месяц 21 день)

[Q] 

Понравилось только последние 10 мин. фильма.
[Профиль]  [ЛС] 

Ливень

Корсар

Пост 24-Апр-2018 20:33 (спустя 1 месяц 17 дней)

[Q] 

Ну, в принципе, нормуль, идея понятна и не очень запутана, графика хорошая. Особенно порадовали небоьшие нелепицы, типа, Главного Пульта Связи, одиноко стоящего посредине песчаного пляжа, или необходимости воровать ОГРОМНУЮ дискету с планами звезды смерти, вместо того чтоб скачать эти планы. (Еще бы бумажные чертежи придумали )))). Вообщем, под пиво отлично смотрелось Супер!
[Профиль]  [ЛС] 
Показать сообщения:    
Ответить на тему

Текущее время: Сегодня 16:58

Часовой пояс: GMT + 4



Вы не можете начинать темы
Вы не можете отвечать на сообщения
Вы не можете редактировать свои сообщения
Вы не можете удалять свои сообщения
Вы не можете голосовать в опросах
Вы не можете прикреплять файлы к сообщениям
Вы не можете скачивать файлы

Майнать ▼