Маша и Медведь: Спи, моя радость, усни! / Серия № 62 (Олег Кузовков, Олег Ужинов, Денис Червяцов, ...) [2017 г., мультфильм, короткометражка, комедия, семейный, WEB-DL 1080p, WEB-DL 720p, WEB-DLRip]

Ответить на тему
 
Автор
Сообщение

Пост 03-Фев-2017 16:02

[Q] 

kugesan

Маша и Медведь: Спи, моя радость, усни!
Серия № 62
-- Производство: Россия
Жанр: мультфильм, короткометражка, комедия, семейный
Год выпуска: 2017 г.
Продолжительность: 00:07:09
Режиссер: Олег Кузовков, Олег Ужинов, Денис Червяцов, ...
Персонажи: Алина Кукушкина, Эдуард Назаров, Борис Кутневич
Перевод: Не требуется
Описание:
Мультсериал про девочку Машу, которая никому не дает покоя, и в первую очередь - своему другу Медведю.
Мультик добрый, веселый, а по качеству намного опережает многие отечественные 3D-мультфильмы, да и некоторые западные 3D мультсериалы.
Сериал показывается в "Спокойной ночи, малыши".
Цель сериала «Маша и Медведь» проста и вместе с тем актуальна - попытаться донести до ребенка вечные истины в понятной и занятной форме,
представить мир в его многообразии, выявить позитивные стороны в любой ситуации. Тактично объяснить логику действий в различных проблемных ситуациях.
В ненавязчивой форме помочь в борьбе с собственными слабостями. Показать человеческие недостатки и высмеять их, не оскорбляя ничьего достоинства.
Формат - комедийный детский сериал.
Сериал рассчитан в первую очередь на детскую аудиторию (от 3 до 9 лет) и поэтому форма изложения материала будет адаптирована для детского восприятия,
но не будет чрезмерно упрощенной. Сериал планируется действительно семейным, интересным для всех возрастов, чтобы взрослые могли посмеяться
над приключениями Маши и Медведя, вспомнив собственное детство.
Благодаря тому, что каждая серия является законченной историей с достоверным видеорядом, у зрителей возникает ощущение, что персонажи и их мир
действительно существует параллельно с нашим (при этом принцип завершенности каждой серии позволяет комбинировать их в любой последовательности,
так чтобы зритель мог понимать и воспринимать сериал, даже пропустив его первые эпизоды).
Сериал "Маша и Медведь" на треке Pirat.ca
- -
Качество видео: WEB-DLRip
Контейнер: AVI
Видео кодек: XviD
Аудио кодек: AC-3
Видео: MPEG-4 Visual at 1665 Кбит/сек: 720 x 400 (1.800) at 25.000 fps, 0.23 Бит/Пиксели
Аудио Rus: AC-3 at 192 Кбит/сек: 2 канала, 44,1 КГц
Cубтитры: отсутствуют
Общее
Полное имя : E:\_Сериалы\МультСериалы\Маша и Медведь\Маша и медведь. Спи моя радость усни\Маша и медведь. Спи моя радость усни (62 серия) WEB-DLRip.avi
Формат : AVI
Формат/Информация : Audio Video Interleave
Размер файла : 98,7 Мбайт
Продолжительность : 7 м. 23 с.
Общий поток : 1867 Кбит/сек
Библиотека кодирования : VirtualDub build 35491/release
Видео
Идентификатор : 0
Формат : MPEG-4 Visual
Профиль формата : Advanced [email protected]
Параметр BVOP формата : 2
Параметр QPel формата : Нет
Параметр GMC формата : Без точки перехода
Параметр матрицы формата : Default (H.263)
Идентификатор кодека : XVID
Идентификатор кодека/Подсказка : XviD
Продолжительность : 7 м. 23 с.
Битрейт : 1665 Кбит/сек
Ширина : 720 пикселей
Высота : 400 пикселей
Соотношение сторон : 16:9
Частота кадров : 25,000 кадров/сек
Цветовое пространство : YUV
Субдискретизация насыщенности : 4:2:0
Битовая глубина : 8 бит
Тип развёртки : Прогрессивная
Метод сжатия : С потерями
Бит/(Пиксели*Кадры) : 0.231
Размер потока : 88,1 Мбайт (89%)
Библиотека кодирования : XviD 67
Аудио
Идентификатор : 1
Формат : AC-3
Формат/Информация : Audio Coding 3
Расширение режима : CM (complete main)
Параметр Endianness формата : Big
Идентификатор кодека : 2000
Продолжительность : 7 м. 23 с.
Вид битрейта : Постоянный
Битрейт : 192 Кбит/сек
Каналы : 2 канала
Расположение каналов : Front: L R
Частота : 48,0 КГц
Частота кадров : 31,250 кадров/сек (1536 spf)
Битовая глубина : 16 бит
Метод сжатия : С потерями
Размер потока : 10,2 Мбайт (10%)
Выравнивание : Соединение по промежуткам
Продолжительность промежутка : 40 мс. (1,00 видеокадр)
Время предзагрузки промежутка : 512 мс.
-
-
Качество видео: WEB-DL 720p
Контейнер: MKV
Видео кодек: AVC ([email protected])
Аудио кодек: AC-3
Видео: AVC at 1531 Кбит/сек: 1280 x 720 (1.778) at 25.000 fps
Аудио: AC-3 at 192 Кбит/сек: 2 канала, 44,1 КГц
Cубтитры: отсутствуют
Общее
Уникальный идентификатор : 217225152921161138029105447249977080668 (0xA36C0AEC52932DDCB74756BBF700FB5C)
Полное имя : E:\_Сериалы\МультСериалы\Маша и Медведь\Маша и медведь. Спи моя радость усни\Маша и медведь. Спи моя радость усни (62 серия) WEB-DL.[720p].mkv
Формат : Matroska
Версия формата : Version 4 / Version 2
Размер файла : 91,2 Мбайт
Продолжительность : 7 м. 23 с.
Общий поток : 1725 Кбит/сек
Дата кодирования : UTC 2017-02-03 11:27:50
Программа кодирования : mkvmerge v9.8.0 ('Kuglblids') 64bit
Библиотека кодирования : libebml v1.3.4 + libmatroska v1.4.5
Видео
Идентификатор : 1
Формат : AVC
Формат/Информация : Advanced Video Codec
Профиль формата : [email protected]
Параметр CABAC формата : Да
Параметр ReFrames формата : 3 кадра
Идентификатор кодека : V_MPEG4/ISO/AVC
Продолжительность : 7 м. 23 с.
Битрейт : 1531 Кбит/сек
Ширина : 1280 пикселей
Высота : 720 пикселей
Соотношение сторон : 16:9
Режим частоты кадров : Постоянный
Частота кадров : 25,000 кадров/сек
Цветовое пространство : YUV
Субдискретизация насыщенности : 4:2:0
Битовая глубина : 8 бит
Тип развёртки : Прогрессивная
Бит/(Пиксели*Кадры) : 0.066
Размер потока : 81,0 Мбайт (89%)
Заголовок : Маша и медведь. Спи моя радость усни (62 серия) WEB-DL.[720p].NNMClub
Язык : Russian
Default : Да
Forced : Нет
Цветовой диапазон : Limited
Основные цвета : BT.709
Характеристики трансфера : BT.709
Коэффициенты матрицы : BT.709
Аудио
Идентификатор : 2
Формат : AC-3
Формат/Информация : Audio Coding 3
Расширение режима : CM (complete main)
Параметр Endianness формата : Big
Идентификатор кодека : A_AC3
Продолжительность : 7 м. 23 с.
Вид битрейта : Постоянный
Битрейт : 192 Кбит/сек
Каналы : 2 канала
Расположение каналов : Front: L R
Частота : 48,0 КГц
Частота кадров : 31,250 кадров/сек (1536 spf)
Битовая глубина : 16 бит
Метод сжатия : С потерями
Размер потока : 10,2 Мбайт (11%)
Язык : Russian
Default : Да
Forced : Нет
-
Качество видео: WEB-DL 1080p
Контейнер: MKV
Видео кодек: AVC ([email protected])
Аудио кодек: AC-3
Видео: AVC at 2901 Кбит/сек: 1920 x 1080 (1.778) at 25.000 fps
Аудио: AC-3 at 192 Кбит/сек: 2 канала, 44,1 КГц
Cубтитры: отсутствуют
Общее
Уникальный идентификатор : 205044538304819458963113019089686968678 (0x9A42244190714E8F95699872700D3966)
Полное имя : E:\_Сериалы\МультСериалы\Маша и Медведь\Маша и медведь. Спи моя радость усни\Маша и медведь. Спи моя радость усни (62 серия) WEB-DL.[1080p].mkv
Формат : Matroska
Версия формата : Version 4 / Version 2
Размер файла : 164 Мбайт
Продолжительность : 7 м. 23 с.
Общий поток : 3094 Кбит/сек
Дата кодирования : UTC 2017-02-03 11:28:39
Программа кодирования : mkvmerge v9.8.0 ('Kuglblids') 64bit
Библиотека кодирования : libebml v1.3.4 + libmatroska v1.4.5
Видео
Идентификатор : 1
Формат : AVC
Формат/Информация : Advanced Video Codec
Профиль формата : [email protected]
Параметр CABAC формата : Да
Параметр ReFrames формата : 2 кадра
Идентификатор кодека : V_MPEG4/ISO/AVC
Продолжительность : 7 м. 23 с.
Битрейт : 2901 Кбит/сек
Ширина : 1920 пикселей
Высота : 1080 пикселей
Соотношение сторон : 16:9
Режим частоты кадров : Постоянный
Частота кадров : 25,000 кадров/сек
Цветовое пространство : YUV
Субдискретизация насыщенности : 4:2:0
Битовая глубина : 8 бит
Тип развёртки : Прогрессивная
Бит/(Пиксели*Кадры) : 0.056
Размер потока : 153 Мбайт (94%)
Заголовок : Маша и медведь. Спи моя радость усни (62 серия) WEB-DL.[1080p].NNMClub
Язык : Russian
Default : Да
Forced : Нет
Цветовой диапазон : Limited
Основные цвета : BT.709
Характеристики трансфера : BT.709
Коэффициенты матрицы : BT.709
Аудио
Идентификатор : 2
Формат : AC-3
Формат/Информация : Audio Coding 3
Расширение режима : CM (complete main)
Параметр Endianness формата : Big
Идентификатор кодека : A_AC3
Продолжительность : 7 м. 23 с.
Вид битрейта : Постоянный
Битрейт : 192 Кбит/сек
Каналы : 2 канала
Расположение каналов : Front: L R
Частота : 48,0 КГц
Частота кадров : 31,250 кадров/сек (1536 spf)
Битовая глубина : 16 бит
Метод сжатия : С потерями
Размер потока : 10,2 Мбайт (6%)
Язык : Russian
Default : Да
Forced : Нет
-
1. Открыть торрент
2. Снять галки с тех файлов торрента, которые мы не хотим закачивать. Оставляем только на нужных нам файлах (файле).
3. Нажать О.К.
В клиенте utorrent
Инструкция
1) Открыть торрент

2) Снять галки с тех файлов торрента, которые мы не хотим закачивать:
* либо вручную, снимая с каждого файла галку( скрин №1)
* либо, нажав кнопку "Снять метки (Select None)", сняв сразу со всех файлов(скрин №2)
№1

№2

Оставляем только на нужных нам файлах (файле).

3)Нажать О.К
-Приятного просмотра!!!-
Download / Скачать

Хотите скачать бесплатно? Зарегистрируйтесь на сайте (ссылка на регистрацию). Pirat.ca - самый быстрый торрент трекер в рунете!

Как скачивать  ·   Что такое торрент  ·   Рейтинг и ограничения

kinstintin

Легенда

Пост 03-Фев-2017 19:59 (спустя 3 часа)

[Q] 

Спасибо!!!
Автору респект!!!
[Профиль]  [ЛС] 

ss80

Гроза морей

36

Пост 03-Фев-2017 20:37 (спустя 38 минут)

[Q] 

Спасибо!!! Раздающему респект!
[Профиль]  [ЛС] 

jofrei53

Флибустьер

Пост 03-Фев-2017 22:45 (спустя 2 часа 7 минут)

[Q] 

Спасибо! Супер! Автору респект!!!
[Профиль]  [ЛС] 

DDoS55

Гроза морей

3251

Пост 23-Фев-2017 22:15 (спустя 19 дней)

[Q] 

!COOL!
Спасибо!!!

_________________
VPN в Нидерландах в ЛС; Включайте в торрент клиенте: DHT, обмен пирами, шифрование, ip-фильтр
[Профиль]  [ЛС] 

dmitrizu

Морской Волк

Пост 13-Дек-2017 20:56 (спустя 9 месяцев 17 дней)

[Q] 

Спасибо!!! Супер! Спасибо!!!
[Профиль]  [ЛС] 

_8165

Корсар

Пост 27-Апр-2018 16:26 (спустя 4 месяца 13 дней)

[Q] 

Спасибо, одна из любимых серий!!! Супер!
[Профиль]  [ЛС] 
Показать сообщения:    
Ответить на тему

Текущее время: Сегодня 03:01

Часовой пояс: GMT + 4



Вы не можете начинать темы
Вы не можете отвечать на сообщения
Вы не можете редактировать свои сообщения
Вы не можете удалять свои сообщения
Вы не можете голосовать в опросах
Вы не можете прикреплять файлы к сообщениям
Вы не можете скачивать файлы

Майнать ▼