Буба / Booba / Сезон: 1-2 / Серии: 1-31 из ?? (Сергей Горобец, Алексей Котеночкин, Леонид Рахманин) [2014 г., мультфильм, комедия, семейный, WEB-DLRip](Обновляемая)

Ответить на тему
 
Автор
Сообщение

Пост 24-Мар-2018 15:30

[Q] 

AlexDjas

Флибустьер

--Буба / Booba-- Производство: Россия
Режиссёр: Сергей Горобец, Алексей Котеночкин, Леонид Рахманин
Жанр: мультфильм, комедия, семейный
Год выпуска: 2014 г.
Продолжительность: 3-4 минуты серия
Российская премьера: 10 ноября 2014
Перевод: Не требуется--Описание: Буба — игривый и любознательный загадочный персонаж. Неизвестно, откуда он появился, но он, очевидно, пропустил последние 100 лет эволюции человечества и только начинает исследовать современный мир.--
Качество видео: WEB-DLRip
Контейнер: MKV
Видео кодек: MPEG4 AVC
Аудио кодек: AC3
Видео: 1280x720, ~2000 kbps, 25 fps
Аудио: AС3, 2 ch, 192 kbps
Cубтитры: отсутствуют
Общее
Уникальный идентификатор : 54302952052212093675258574600779463633 (0x28DA5E3E97E27DAC6BD9F4416C31FBD1)
Полное имя : D:\Мультфильмы\Пиратка\Buba[pirat.ca]\1 Сезон\01_Кухня.mkv
Формат : Matroska
Версия формата : Version 4 / Version 2
Размер файла : 57,1 Мбайт
Продолжительность : 3 м. 7 с.
Общий поток : 2560 Кбит/сек
Программа кодирования : Lavf57.25.100
Библиотека кодирования : Lavf57.25.100
Видео
Идентификатор : 1
Формат : AVC
Формат/Информация : Advanced Video Codec
Профиль формата : [email protected]
Настройки формата : CABAC / 4 Ref Frames
Параметр CABAC формата : Да
Параметр RefFrames формата : 4 кадра
Идентификатор кодека : V_MPEG4/ISO/AVC
Продолжительность : 3 м. 7 с.
Битрейт : 2317 Кбит/сек
Ширина : 1280 пикселей
Высота : 720 пикселей
Соотношение сторон : 16:9
Режим частоты кадров : Постоянный
Частота кадров : 25,000 кадров/сек
Цветовое пространство : YUV
Субдискретизация насыщенности : 4:2:0
Битовая глубина : 8 бит
Тип развёртки : Прогрессивная
Бит/(Пиксели*Кадры) : 0.101
Размер потока : 51,7 Мбайт (90%)
Библиотека кодирования : x264 core 148 r2643 5c65704
Настройки программы : cabac=1 / ref=3 / deblock=1:0:0 / analyse=0x3:0x133 / me=hex / subme=7 / psy=1 / psy_rd=1.00:0.00 / mixed_ref=1 / me_range=16 / chroma_me=1 / trellis=1 / 8x8dct=1 / cqm=0 / deadzone=21,11 / fast_pskip=1 / chroma_qp_offset=-2 / threads=3 / lookahead_threads=1 / sliced_threads=0 / nr=0 / decimate=1 / interlaced=0 / bluray_compat=0 / constrained_intra=0 / bframes=3 / b_pyramid=2 / b_adapt=1 / b_bias=0 / direct=1 / weightb=1 / open_gop=0 / weightp=2 / keyint=250 / keyint_min=25 / scenecut=40 / intra_refresh=0 / rc_lookahead=40 / rc=crf / mbtree=1 / crf=20.0 / qcomp=0.60 / qpmin=10 / qpmax=51 / qpstep=4 / ip_ratio=1.40 / aq=1:1.00
Default : Да
Forced : Нет
Аудио
Идентификатор : 2
Формат : AC-3
Формат/Информация : Audio Coding 3
Идентификатор кодека : A_AC3
Продолжительность : 3 м. 6 с.
Вид битрейта : Постоянный
Битрейт : 192 Кбит/сек
Каналы : 2 канала
Расположение каналов : Front: L R
Частота : 44,1 КГц
Частота кадров : 28,711 кадров/сек (1536 SPF)
Битовая глубина : 16 бит
Метод сжатия : С потерями
Задержка видео : -40 мс.
Размер потока : 4,28 Мбайт (7%)
ServiceKind/String : Complete Main
Default : Да
Forced : Нет
1 сезон:
01_Кухня.
02_Ванная комната.
03_Детская комната.
04_Кабинет.
05_Игровая комната.
06_Кабинет биологии.
07_Свеча.
08_Гараж.
09_Чердак.
10_Бабочка.
11_Мышеловка.
12_Картина.
13_Кондитерская.
14_Цирк.
15_Праздник.
16_Кинотеатр.
17_Лампочка.
18_Бургер.
19_Метро.
20_Супермаркет.
21_Концертный зал.
22_Виноград.
23.1_Диско.
23.2_Танец Хоки Поки.
24_Звук.
25_Фитнес клуб.
26_НЛО.
2 сезон:
27_Терраса.
28_Поезд.
29_Самолёт.
30_Музей.
31_Ферма.
Раздача ведётся путём добавления новых серий; при каждом добавлении создаётся новый торрент.
Чтобы начать докачку новой серии, пользователям необходимо сделать следующее:
1. остановить скачивание,
2. удалить старый торрент у себя из клиента (старые серии удалять не надо),
3. скачать новый торрент и запустить его у себя в клиенте вместо старого, при этом указать клиенту путь в старую папку, куда и должно происходить скачивание новых серий.
Ваш клиент при этом должен произвести хеширование (проверку) старой папки (если не производит сам - помогите ему сделать это), и будет докачивать только те серии которых у вас ещё нет. Старые серии при этом не удаляются, а продолжают раздаваться!
Eсли вы уже удалили старые серии, то предотвратить повторную закачку старых серий можно, отжав галочку в соответствующих местах при запуске нового торрента. По возможности, желательно не удалять старые серии как можно дольше, чтобы релизёр не столько продолжал раздавать старые серии, а смог сконцентрироваться на новых.
Совет для тех, кто не хочет ждать перехеширования:
Создайте ещё одну папку рядом с папкой сериала (рядом, а не в ней!!!). Каждую новую серию после удачной загрузки копируйте в новую папку так чтобы ваша основная папка всегда была пуста. Когда ваш новый торрент предложит вам закачать все файлы, выберете только последнюю. Для сидирования же укажите адрес новой папки.
Как закачать отдельный файл из торрента или докачать ранее пропущенные файлы торрента!
1. Открыть торрент
2. Снять галки с тех файлов торрента, которые мы не хотим закачивать. Оставляем только на нужных нам файлах (файле).
3. Нажать О.К.
В клиенте utorrent
Инструкция
1) Открыть торрент

2) Снять галки с тех файлов торрента, которые мы не хотим закачивать:
* либо вручную, снимая с каждого файла галку( скрин №1)
* либо, нажав кнопку "Снять метки (Select None)", сняв сразу со всех файлов(скрин №2)
№1

№2

Оставляем только на нужных нам файлах (файле).

3)Нажать О.К
--29.04.2018 Добавлена 31 серия - "Ферма"--
Download / Скачать

Хотите скачать бесплатно? Зарегистрируйтесь на сайте (ссылка на регистрацию). Pirat.ca - самый быстрый торрент трекер в рунете!

Как скачивать  ·   Что такое торрент  ·   Рейтинг и ограничения



Последний раз редактировалось: AlexDjas (2018-04-29 09:50), всего редактировалось 1 раз

AlexDjas ®

Флибустьер

3394

Пост 13-Апр-2018 19:33 (спустя 20 дней)

[Q] 

Добавлена 30 серия

_________________
- Один терапевт - это 1024 гигапевта, или 1048576 мегапевтов!
[Профиль]  [ЛС] 

AlexDjas ®

Флибустьер

3394

Пост 29-Апр-2018 09:52 (спустя 15 дней)

[Q] 

Добавлена 31 серия )

_________________
- Один терапевт - это 1024 гигапевта, или 1048576 мегапевтов!
[Профиль]  [ЛС] 
Показать сообщения:    
Ответить на тему

Текущее время: Сегодня 21:21

Часовой пояс: GMT + 4



Вы не можете начинать темы
Вы не можете отвечать на сообщения
Вы не можете редактировать свои сообщения
Вы не можете удалять свои сообщения
Вы не можете голосовать в опросах
Вы не можете прикреплять файлы к сообщениям
Вы не можете скачивать файлы

Майнать ▼