Жених на двоих / Jour J (Рем Кериси / Reem Kherici) [2017 г., комедия, BDRip] Dub [iTunes]

Ответить на тему
 
Автор
Сообщение

Пост 04-Сен-2017 12:27

[Q] 

ara1205

-Жених на двоих / Jour J-- Производство: Франция
Год выпуска: 2017 г.
Жанр: комедия
Продолжительность: 01:33:58
Мировая премьера: 30 марта 2017
Российская премьера: 10 августа 2017
Перевод: Профессиональный (полное дублирование) [iTunes]-Режиссёр: Рем Кериси / Reem Kherici-В ролях: Рем Кериси, Николя Дювошель, Джулия Пьятон, Сильви Тестю, Франсуа-Ксавье Демезон, Шанталь Лоби, Лионель Астье-Описание: Что делать, если любовница занимается организацией твоей свадьбы? Молиться, чтобы она не подружилась с невестой. У Матиаса осталось совсем мало времени, чтобы выбрать из двух девушек — одну.- -Качество видео: BDRip
Контейнер: AVI
Видео кодек: XviD
Аудио кодек: AC3
Видео: 720х304, 24 fps, 1768 Kbps, 0.336 bits/pixel
Аудио: 48 kHz, AC3 Dolby Digital, 6 ch, 384 Kbps
Cубтитры: отсутствуют-
C:\Users\Admin\Videos\Жених на двоих\Genih.Na.Dvoih.2017.BDRip.[pirat.ca].avi
General
Complete name : C:\Users\Admin\Videos\Жених на двоих\Genih.Na.Dvoih.2017.BDRip.[pirat.ca].avi
Format : AVI
Format/Info : Audio Video Interleave
File size : 1.42 GiB
Duration : 1 h 33 min
Overall bit rate : 2 161 kb/s
Writing application : VirtualDubMod 1.5.10.2 (build 2540/release)
Writing library : VirtualDubMod build 2540/release
Video #0
ID : 0
Format : MPEG-4 Visual
Format profile : Advanced [email protected]
Format settings, BVOP : 1
Format settings, QPel : No
Format settings, GMC : No warppoints
Format settings, Matrix : Custom
Codec ID : XVID
Codec ID/Hint : XviD
Duration : 1 h 33 min
Bit rate : 1 768 kb/s
Width : 720 pixels
Height : 304 pixels
Display aspect ratio : 2.35:1
Frame rate : 24.000 FPS
Color space : YUV
Chroma subsampling : 4:2:0
Bit depth : 8 bits
Scan type : Progressive
Compression mode : Lossy
Bits/(Pixel*Frame) : 0.336
Stream size : 1.16 GiB (82%)
Writing library : XviD 73
Audio #1
ID : 1
Format : AC-3
Format/Info : Audio Coding 3
Mode extension : CM (complete main)
Format settings, Endianness : Big
Codec ID : 2000
Duration : 1 h 33 min
Bit rate mode : Constant
Bit rate : 384 kb/s
Channel(s) : 6 channels
Channel positions : Front: L C R, Side: L R, LFE
Sampling rate : 48.0 kHz
Frame rate : 31.250 FPS (1536 spf)
Compression mode : Lossy
Stream size : 258 MiB (18%)
Alignment : Split accross interleaves
Interleave, duration : 42 ms (1.00 video frame)
Interleave, preload duration : 500 ms
-
-
Download / Скачать

Хотите скачать бесплатно? Зарегистрируйтесь на сайте (ссылка на регистрацию). Pirat.ca - самый быстрый торрент трекер в рунете!

Как скачивать  ·   Что такое торрент  ·   Рейтинг и ограничения

martiros

Штурман

Пост 05-Сен-2017 21:33 (спустя 1 день 9 часов)

[Q] 

Фильм - прелесть, давно таких чудных "комедий положений" не смотрел. Получил огромное удовольствие всем рекомендую. Да, автору раздачи, большая благодарность в приказе.
[Профиль]  [ЛС] 

DGalei

Корсар

Пост 06-Сен-2017 01:53 (спустя 4 часа)

[Q] 

Спасибо! Всем качать!!!
[Профиль]  [ЛС] 

[email protected]

Морской Волк

Пост 06-Сен-2017 18:08 (спустя 16 часов)

[Q] 

ждал фильмец)) стоит глянуть Всем качать!!!
[Профиль]  [ЛС] 

Незнайка

Флибустьер

Пост 06-Сен-2017 20:45 (спустя 2 часа 37 минут)

[Q] 

Спасибо, посмотрим
Спасибо!!!
[Профиль]  [ЛС] 

Alingva

Легенда

468

Пост 06-Сен-2017 23:13 (спустя 2 часа 27 минут)

[Q] 

Спасибо!!! глянем-с!

_________________
Если Вам кажется что у Вас нимб над головой, то не обращайте на него внимание - это просто мания величия!
[Профиль]  [ЛС] 

fishman

Флибустьер

Пост 07-Сен-2017 01:26 (спустя 2 часа 13 минут)

[Q] 

Спасибо!!! rum

_________________
|___|___|___|___|___|___|___|__|__
__|__|__|_Биться головой_|___|___|
|___|___|___|__сюда!!___|___|__|__
__|___|___|___|___|___|___|__|__
[Профиль]  [ЛС] 

Golsergio

Гроза морей

Пост 10-Сен-2017 12:40 (спустя 3 дня)

[Q] 

легкий и прикольный фильмец. :47 Автору респект!!! :
[Профиль]  [ЛС] 

nikromonger

Корсар

Пост 16-Сен-2017 14:08 (спустя 6 дней)

[Q] 

однако не дурно! aa rum
[Профиль]  [ЛС] 

vasdas

Корсар

Пост 17-Сен-2017 03:41 (спустя 13 часов)

[Q] 

После таких отзывов, грех не посмотреть. Качают ВСЕ!!!
[Профиль]  [ЛС] 

Dobryak

Штурман

Пост 01-Окт-2017 11:45 (спустя 14 дней)

[Q] 

Фильм хороший, для европейского кино. Актёрская игра присутствует, шутки хорошие, отсутствие идиотии режиссёра, красивая картинка, персонажи соответствуют жизни. Смотреть всем. 8/10 Всем качать!!! Раздающему респект!
[Профиль]  [ЛС] 

pacco

Корсар

Пост 17-Окт-2017 18:40 (спустя 16 дней)

[Q] 

добрый фильмец
[Профиль]  [ЛС] 

baltimor30

Корсар

Пост 23-Окт-2017 21:33 (спустя 6 дней)

[Q] 

фильм отпад, добрый приятный, короче всем смотреть !COOL!
[Профиль]  [ЛС] 

Ishtori

Флибустьер

Пост 04-Ноя-2017 20:25 (спустя 11 дней)

[Q] 

спасибо за раздачу! Супер!
[Профиль]  [ЛС] 

lexaspirit

Пост 21-Мар-2018 21:41 (спустя 4 месяца 17 дней)

[Q] 

Нормальная такая комедия, есть над чем посмеяться. Стоит посмотреть

_________________
-------------------- ----------------------
[Профиль]  [ЛС] 

Mosgas666

Шкипер

Пост 02-Май-2018 20:56 (спустя 1 месяц 11 дней)

[Q] 

Спасибо, нравится смотреть французские комедии!
[Профиль]  [ЛС] 
Показать сообщения:    
Ответить на тему

Текущее время: Сегодня 16:46

Часовой пояс: GMT + 4



Вы не можете начинать темы
Вы не можете отвечать на сообщения
Вы не можете редактировать свои сообщения
Вы не можете удалять свои сообщения
Вы не можете голосовать в опросах
Вы не можете прикреплять файлы к сообщениям
Вы не можете скачивать файлы

Майнать ▼