[hentai] Рензу: Расстояние между двумя / Renzu: Futari no Kyori (Эдогава Сампо / Edogawa Rampo) [OVA] [1 из 1] [uncen] [2000 г.] [хентай] [DVDRip] [RUS+SUB(ENG)]

Ответить на тему
 
Автор
Сообщение

Пост 15-Янв-2012 00:55

[Q] 

ara1205

Рензу: Расстояние между двумя / Renzu: Futari no Kyori
Год выпуска: 2000
Производство: Япония
Жанр: хентай
Продолжительность: 00:28:35
Перевод: Любительский одноголосый (Alekseevi4) Специально для PIRAT.CA
Субтитры: Английские
Цензура: Отсутствует
Режиссер: Эдогава Сампо / Edogawa Rampo
Описание: Tору Шиода получил травму и больше не может играть в футбол. Теперь он проводит все больше времени за объективом своей фотокамеры. Аска, подруга детства Шиоды, питает к нему нежные чувства, но он закрыт от всего мира. Будет ли в этой истории счастливый конец?
Источник/Качество: DVDRip
Формат: AVI
Видео кодек: XviD
Аудио кодек: MP3
Видео: XviD, 640x480, 25 кадр/сек, 1071 Кбит/сек
Аудио RUS: MP3, 2 канала, 48,0 КГц, 128 Кбит/сек
General
Complete name : D:\Рензу Расстояние между двумя\Renzu Futari no Kyori.[pirat.ca]\Renzu.[pirat.ca].avi
Format : AVI
Format/Info : Audio Video Interleave
File size : 247 MiB
Duration : 28mn 35s
Overall bit rate : 1 209 Kbps
Video
Format : MPEG-4 Visual
Format profile : Streaming [email protected]
Format settings, BVOP : No
Format settings, QPel : No
Format settings, GMC : No warppoints
Format settings, Matrix : Default
Codec ID : XVID
Codec ID/Hint : XviD
Duration : 28mn 35s
Bit rate : 1 071 Kbps
Width : 640 pixels
Height : 480 pixels
Display aspect ratio : 4/3
Frame rate : 25.000 fps
Resolution : 24 bits
Colorimetry : 4:2:0
Scan type : Progressive
Bits/(Pixel*Frame) : 0.140
Stream size : 219 MiB (89%)
Writing library : XviD 62
Audio
Format : MPEG Audio
Format version : Version 1
Format profile : Layer 3
Codec ID : 55
Codec ID/Hint : MP3
Duration : 28mn 35s
Bit rate mode : Constant
Bit rate : 128 Kbps
Channel(s) : 2 channels
Sampling rate : 48.0 KHz
Resolution : 16 bits
Stream size : 26.2 MiB (11%)
Alignment : Split accross interleaves
Interleave, duration : 40 ms (1.00 video frame)
Writing library : LAMELAME_MAJOR_VERSI
Download / Скачать

Хотите скачать бесплатно? Зарегистрируйтесь на сайте (ссылка на регистрацию). Pirat.ca - самый быстрый торрент трекер в рунете!

Как скачивать  ·   Что такое торрент  ·   Рейтинг и ограничения

Раемия

Флибустьер

Пост 23-Фев-2012 23:17 (спустя 1 месяц 8 дней)

[Q] 


_________________
Любите кроликов!!!…и они отплатят вам тем же…
[Профиль]  [ЛС] 

ьщкщяму

Шкипер

Пост 09-Июн-2012 20:51 (спустя 3 месяца 14 дней)

[Q] 

[Профиль]  [ЛС] 

fishman

Флибустьер

Пост 14-Фев-2013 22:03 (спустя 8 месяцев 5 дней)

[Q] 


_________________
|___|___|___|___|___|___|___|__|__
__|__|__|_Биться головой_|___|___|
|___|___|___|__сюда!!___|___|__|__
__|___|___|___|___|___|___|__|__
[Профиль]  [ЛС] 

Daar

Пост 18-Авг-2014 17:59 (спустя 1 год 6 месяцев)

[Q] 

2000... какая прорисовка...
[Профиль]  [ЛС] 

Ataksin55

Лоцман

Пост 24-Янв-2015 14:11 (спустя 5 месяцев 5 дней)

[Q] 

весьма интересно
[Профиль]  [ЛС] 

delta_tank

Штурман

Пост 08-Апр-2016 13:30 (спустя 1 год 2 месяца)

[Q] 

bf Спасибо!!!
[Профиль]  [ЛС] 

azorg

Шкипер

Пост 02-Май-2018 23:01 (спустя 2 года)

[Q] 

Спасибо!!!
[Профиль]  [ЛС] 
Показать сообщения:    
Ответить на тему

Текущее время: Сегодня 16:04

Часовой пояс: GMT + 4



Вы не можете начинать темы
Вы не можете отвечать на сообщения
Вы не можете редактировать свои сообщения
Вы не можете удалять свои сообщения
Вы не можете голосовать в опросах
Вы не можете прикреплять файлы к сообщениям
Вы не можете скачивать файлы

Майнать ▼