[hentai] Экскурсовод / Dark Tours / Shinjin Tour Conductor (Kamihara Toshiaki) [OVA] [1 из 1] [uncen] [2004 г.] [Rape, Anal, Horror, Mystery, Oral, Double Penetration] [DVDRip] [RUS/JAP/ENG + SUB(RUS/ENG)]

Ответить на тему
 
Автор
Сообщение

Пост 08-Июн-2014 18:24

[Q] 

ara1205

-Экскурсовод / Dark Tours / Shinjin Tour Conductor新人ツアーコンダクター・里奈-- Год выпуска: 2004
Страна: Япония
Жанр: Rape, Anal, Horror, Mystery, Oral, Double Penetration
Продолжительность: 30 мин
Тип: OVA (OAV)
Цензура: Отсутствует
Озвучка: Любительская (одноголосая, закадровая)
Субтитры: RUS/ENG-Режиссер: Kamihara Toshiaki
Студия: Milky-Описание: Рина, гид из турагентства, сопровождает группу в деревню Матсусава, известную своими мистическими легендами. Девушка и не подозревает, что за сюрприз готовят посторонним духи деревни...- -Источник: DVDRip
Контейнер: MKV
Видео кодек: H.264
Видео: 640x480 29.97fps 1101Kbps
Аудио RUS: MP3 44100Hz stereo 192Kbps
Аудио JAP: OGG Vorbis 48000Hz stereo 108Kbps
Аудио ENG: OGG Vorbis 48000Hz stereo 105Kbps
Формат субтитров: softsub (SSA/ASS)-
Общее
Уникальный идентификатор : 241807860441123270641815308588624034777 (0xB5EA7FFAD591603494BEA5FB6866BBD9)
Полное имя : C:\Users\Ромик\Documents\пиратка\Хентай\Экскурсовод\Dark_Tour.mkv
Формат : Matroska
Версия формата : Version 2
Размер файла : 322 Мбайт
Продолжительность : 29 м.
Режим общего битрейта : Переменный
Общий поток : 1510 Кбит/сек
Дата кодирования : UTC 2014-06-08 14:10:30
Программа кодирования : mkvmerge v5.6.0 ('Kenya Kane') built on Jun 29 2012 15:01:44
Библиотека кодирования : libebml v1.2.3 + libmatroska v1.3.0
Видео
Идентификатор : 1
Формат : AVC
Формат/Информация : Advanced Video Codec
Профиль формата : [email protected]
Параметр CABAC формата : Да
Параметр ReFrames формата : 2 кадра
Идентификатор кодека : V_MPEG4/ISO/AVC
Продолжительность : 29 м.
Битрейт : 1032 Кбит/сек
Номинальный битрейт : 1375 Кбит/сек
Ширина : 640 пикселей
Высота : 480 пикселей
Соотношение сторон : 4:3
Режим частоты кадров : Постоянный
Частота кадров : 23,976 кадра/сек
Частота кадров в оригинале : 29,970 кадров/сек
Цветовое пространство : YUV
Субдискретизация насыщенности : 4:2:0
Битовая глубина : 8 бит
Тип развёртки : Прогрессивная
Бит/(Пиксели*Кадры) : 0.140
Размер потока : 220 Мбайт (68%)
Заголовок : H264
Библиотека кодирования : x264 core 46 svn-504
Настройки программы : cabac=1 / ref=1 / deblock=1:0:0 / analyse=0x3:0x113 / me=hex / subme=5 / brdo=0 / mixed_ref=0 / me_range=16 / chroma_me=1 / trellis=1 / 8x8dct=1 / cqm=0 / chroma_qp_offset=0 / slices=1 / nr=0 / decimate=1 / bframes=2 / b_pyramid=0 / b_adapt=1 / b_bias=0 / direct=2 / wpredb=1 / bime=0 / keyint=250 / keyint_min=25 / scenecut=40 / rc=2pass / bitrate=1375 / ratetol=1.0 / rceq='blurCplx^(1-qComp)' / qcomp=0.60 / qpmin=10 / qpmax=51 / qpstep=4 / cplxblur=20.0 / qblur=0.5 / ip_ratio=1.40 / pb_ratio=1.30
Язык : Japanese
Default : Да
Forced : Нет
Аудио #1
Идентификатор : 2
Формат : MPEG Audio
Версия формата : Version 1
Профиль формата : Layer 3
Режим : Joint stereo
Режим смешивания : Header stripping
Идентификатор кодека : A_MPEG/L3
Идентификатор кодека/Подсказка : MP3
Продолжительность : 29 м.
Вид битрейта : Постоянный
Битрейт : 192 Кбит/сек
Каналы : 2 канала
Частота : 44,1 КГц
Метод сжатия : С потерями
Размер потока : 41,0 Мбайт (13%)
Язык : Russian
Default : Да
Forced : Нет
Аудио #2
Идентификатор : 3
Формат : Vorbis
Параметр Floor формата : 1
Идентификатор кодека : A_VORBIS
Продолжительность : 29 м.
Вид битрейта : Переменный
Битрейт : 128 Кбит/сек
Каналы : 2 канала
Частота : 48,0 КГц
Метод сжатия : С потерями
Размер потока : 27,3 Мбайт (8%)
Библиотека кодирования : libVorbis 1.0.1 (UTC 2003-09-09)
Язык : Japanese
Default : Нет
Forced : Нет
Программа кодирования : Made with BeSweet v1.5b30
Encoded_Application/Url : http://DSPguru.doom9.org
Аудио #3
Идентификатор : 4
Формат : Vorbis
Параметр Floor формата : 1
Идентификатор кодека : A_VORBIS
Продолжительность : 29 м.
Вид битрейта : Переменный
Битрейт : 128 Кбит/сек
Каналы : 2 канала
Частота : 48,0 КГц
Метод сжатия : С потерями
Размер потока : 27,3 Мбайт (8%)
Библиотека кодирования : libVorbis 1.0.1 (UTC 2003-09-09)
Язык : English
Default : Нет
Forced : Нет
Программа кодирования : Made with BeSweet v1.5b30
Encoded_Application/Url : http://DSPguru.doom9.org
Текст #1
Идентификатор : 5
Формат : UTF-8
Идентификатор кодека : S_TEXT/UTF8
Идентификатор кодека/Информация : UTF-8 Plain Text
Язык : Russian
Default : Да
Forced : Нет
Текст #2
Идентификатор : 6
Формат : ASS
Идентификатор кодека : S_TEXT/ASS
Идентификатор кодека/Информация : Advanced Sub Station Alpha
Метод сжатия : Без потерь
Заголовок : ASS
Язык : English
Default : Нет
Forced : Нет
Текст #3
Идентификатор : 7
Формат : UTF-8
Идентификатор кодека : S_TEXT/UTF8
Идентификатор кодека/Информация : UTF-8 Plain Text
Заголовок : SRT
Язык : English
Default : Нет
Forced : Нет
-
-
-
Download / Скачать

Хотите скачать бесплатно? Зарегистрируйтесь на сайте (ссылка на регистрацию). Pirat.ca - самый быстрый торрент трекер в рунете!

Как скачивать  ·   Что такое торрент  ·   Рейтинг и ограничения

fishman

Флибустьер

Пост 03-Фев-2018 19:41 (спустя 3 года 7 месяцев)

[Q] 

Спасибо!!! rum

_________________
|___|___|___|___|___|___|___|__|__
__|__|__|_Биться головой_|___|___|
|___|___|___|__сюда!!___|___|__|__
__|___|___|___|___|___|___|__|__
[Профиль]  [ЛС] 

azorg

Шкипер

Пост 02-Май-2018 23:05 (спустя 2 месяца 27 дней)

[Q] 

Спасибо!!!
[Профиль]  [ЛС] 
Показать сообщения:    
Ответить на тему

Текущее время: Сегодня 12:11

Часовой пояс: GMT + 4



Вы не можете начинать темы
Вы не можете отвечать на сообщения
Вы не можете редактировать свои сообщения
Вы не можете удалять свои сообщения
Вы не можете голосовать в опросах
Вы не можете прикреплять файлы к сообщениям
Вы не можете скачивать файлы

Майнать ▼