[hentai] Королевская кровь / Blood Royale (Симбо Акиюки / Shinbo Akiyuki) [OVA] [2 из 2] [uncen] [2002г.] [насилие, хентай] [DVDRip] [JAP/ENG/RUS]

Ответить на тему
 
Автор
Сообщение

Пост 09-Янв-2012 22:08

[Q] 

ara1205

Королевская кровь / Blood Royale
Год выпуска: 2002
Производство: Япония
Жанр: хентай
Продолжительность: 00:30:00
Перевод: Любительский одноголосый
Оригинальный аудиопоток: Японский+Англиский
Субтитры: Отсутствуют
Цензура:Отсутствует
Режиссер: Симбо Акиюки / Shinbo Akiyuki
Описание: Жестокий пират воспитывает на своём корабле двух принцесс, ничего толком не знающих о жизни. Но методика которой пират учит этих принцесс жизни относится к жёстким трём иксам. В частности, там есть секс с осьминогом. И нам даже показывают известное Укиё-э 19-го века "Сон жены рыбака" или "The Dream of the Fisherman's Wife" - посмотрите в английской Википедии, если интересно. При этом пират постепенно влюбляется по крайней мере в одну из них. Ну и между принцессами возникает дружба. Что не особо нравится особе женского пола, которая в начале и продала этих принцесс пирату. В конце пират говорит этой особе, что она может его убить, но принцесс она должна отпустить. Женщина поражается такой отваге со стороны пирата и отпускает их всех с миром.
Источник/Качество: DVDRip
Формат: AVI
Видео кодек: XviD
Аудио кодек: MP3
Видео: 640x480, 23,976 кадр/сек, 743 Кбит/сек
Аудио #1: JP: MP3, 2 канала, 48,0 КГц, 192 Кбит/сек
Аудио #2: EN: MVO, MP3, 2 канала, 48,0 КГц, 192 Кбит/сек
Аудио #3: RU: VO, MP3, 2 канала, 48,0 КГц, 192 Кбит/сек
General
Complete name : C:\Documents and Settings\Admin\Рабочий стол\Королевская кровь\Blood Royale (Королевская кровь)\Blood_Royale_OVA_[01_of_02]_[ru_jp_eng]_[AnimeReactor_Ru].avi
Format : AVI
Format/Info : Audio Video Interleave
File size : 283 MiB
Duration : 29mn 33s
Overall bit rate : 1 338 Kbps
Writing application : VirtualDubMod 1.5.10.2 (build 2540/release)
Writing library : VirtualDubMod build 2540/release
Video
Format : MPEG-4 Visual
Format profile : Streaming [email protected]
Format settings, BVOP : No
Format settings, QPel : No
Format settings, GMC : 3 warppoints
Format settings, Matrix : Default
Codec ID : XVID
Codec ID/Hint : XviD
Duration : 29mn 33s
Bit rate : 743 Kbps
Width : 640 pixels
Height : 480 pixels
Display aspect ratio : 4/3
Frame rate : 23.976 fps
Resolution : 24 bits
Colorimetry : 4:2:0
Scan type : Progressive
Bits/(Pixel*Frame) : 0.101
Stream size : 157 MiB (56%)
Writing library : XviD 1.0.1 (UTC 2004-06-05)
Audio
Format : MPEG Audio
Format version : Version 1
Format profile : Layer 3
Codec ID : 55
Codec ID/Hint : MP3
Duration : 29mn 32s
Bit rate mode : Constant
Bit rate : 192 Kbps
Channel(s) : 2 channels
Sampling rate : 48.0 KHz
Resolution : 16 bits
Stream size : 40.6 MiB (14%)
Alignment : Aligned on interleaves
Interleave, duration : 42 ms (1.00 video frame)
Interleave, preload duration : 504 ms
Title : Russian language
Audio
Format : MPEG Audio
Format version : Version 1
Format profile : Layer 3
Codec ID : 55
Codec ID/Hint : MP3
Duration : 29mn 33s
Bit rate mode : Constant
Bit rate : 192 Kbps
Channel(s) : 2 channels
Sampling rate : 48.0 KHz
Resolution : 16 bits
Video delay : 24ms
Stream size : 40.6 MiB (14%)
Alignment : Split accross interleaves
Interleave, duration : 42 ms (1.00 video frame)
Interleave, preload duration : 500 ms
Title : Japanese language
Audio
Format : MPEG Audio
Format version : Version 1
Format profile : Layer 3
Codec ID : 55
Codec ID/Hint : MP3
Duration : 29mn 33s
Bit rate mode : Constant
Bit rate : 192 Kbps
Channel(s) : 2 channels
Sampling rate : 48.0 KHz
Resolution : 16 bits
Video delay : 24ms
Stream size : 40.6 MiB (14%)
Alignment : Aligned on interleaves
Interleave, duration : 42 ms (1.00 video frame)
Interleave, preload duration : 504 ms
Title : English language
Writing library : LAME3.92
General
Complete name : C:\Documents and Settings\Admin\Рабочий стол\Королевская кровь\Blood Royale (Королевская кровь)\Blood_Royale_OVA_[02_of_02]_[ru_jp_eng].avi
Format : AVI
Format/Info : Audio Video Interleave
File size : 259 MiB
Duration : 29mn 52s
Overall bit rate : 1 210 Kbps
Writing application : VirtualDubMod 1.5.10.2 (build 2540/release)
Writing library : VirtualDubMod build 2540/release
Video
Format : MPEG-4 Visual
Format profile : Streaming [email protected]
Format settings, BVOP : No
Format settings, QPel : No
Format settings, GMC : 3 warppoints
Format settings, Matrix : Default
Codec ID : XVID
Codec ID/Hint : XviD
Duration : 29mn 52s
Bit rate : 615 Kbps
Width : 640 pixels
Height : 480 pixels
Display aspect ratio : 4/3
Frame rate : 23.976 fps
Resolution : 24 bits
Colorimetry : 4:2:0
Scan type : Progressive
Bits/(Pixel*Frame) : 0.084
Stream size : 131 MiB (51%)
Writing library : XviD 1.0.1 (UTC 2004-06-05)
Audio
Format : MPEG Audio
Format version : Version 1
Format profile : Layer 3
Codec ID : 55
Codec ID/Hint : MP3
Duration : 29mn 52s
Bit rate mode : Constant
Bit rate : 192 Kbps
Channel(s) : 2 channels
Sampling rate : 48.0 KHz
Resolution : 16 bits
Stream size : 41.0 MiB (16%)
Alignment : Aligned on interleaves
Interleave, duration : 42 ms (1.00 video frame)
Interleave, preload duration : 504 ms
Title : Russian language
Audio
Format : MPEG Audio
Format version : Version 1
Format profile : Layer 3
Codec ID : 55
Codec ID/Hint : MP3
Duration : 29mn 52s
Bit rate mode : Constant
Bit rate : 192 Kbps
Channel(s) : 2 channels
Sampling rate : 48.0 KHz
Resolution : 16 bits
Video delay : 24ms
Stream size : 41.0 MiB (16%)
Alignment : Split accross interleaves
Interleave, duration : 42 ms (1.00 video frame)
Interleave, preload duration : 500 ms
Title : Japanese language
Audio
Format : MPEG Audio
Format version : Version 1
Format profile : Layer 3
Codec ID : 55
Codec ID/Hint : MP3
Duration : 29mn 52s
Bit rate mode : Constant
Bit rate : 192 Kbps
Channel(s) : 2 channels
Sampling rate : 48.0 KHz
Resolution : 16 bits
Video delay : 24ms
Stream size : 41.0 MiB (16%)
Alignment : Aligned on interleaves
Interleave, duration : 42 ms (1.00 video frame)
Interleave, preload duration : 504 ms
Title : English language
Download / Скачать

Хотите скачать бесплатно? Зарегистрируйтесь на сайте (ссылка на регистрацию). Pirat.ca - самый быстрый торрент трекер в рунете!

Как скачивать  ·   Что такое торрент  ·   Рейтинг и ограничения

ьщкщяму

Шкипер

Пост 09-Июн-2012 20:44 (спустя 4 месяца 30 дней)

[Q] 

[Профиль]  [ЛС] 

ross002

Штурман

Пост 05-Янв-2015 23:44 (спустя 2 года 6 месяцев)

[Q] 

Всем качать!!! !COOL!
[Профиль]  [ЛС] 

azorg

Шкипер

Пост 02-Май-2018 23:13 (спустя 3 года 3 месяца)

[Q] 

aa
[Профиль]  [ЛС] 
Показать сообщения:    
Ответить на тему

Текущее время: Сегодня 20:00

Часовой пояс: GMT + 4



Вы не можете начинать темы
Вы не можете отвечать на сообщения
Вы не можете редактировать свои сообщения
Вы не можете удалять свои сообщения
Вы не можете голосовать в опросах
Вы не можете прикреплять файлы к сообщениям
Вы не можете скачивать файлы

Майнать ▼