[hentai] Фруктовый кубок / Fruits Cup / Yuuguu Settai: Kotou no Gokuraku e Youkoso (Yoshio Usuda) [OVA] [uncen] [2 из 2] [2004 г.] [DFC, Yuri, Rape, Students] [DVDRip] [RUS/JAP/ENG + SUB(ENG)]

Ответить на тему
 
Автор
Сообщение

Пост 22-Июн-2014 22:49

[Q] 

ara1205

-Фруктовый кубок / Fruits Cup / Yuuguu Settai: Kotou no Gokuraku e Youkoso
優遇接待~孤島の極楽へようこそ~-- Год выпуска: 2004
Страна: Япония
Жанр: DFC, Yuri, Rape, Students
Продолжительность: 2 серии по 25 мин
Тип: OVA (OAV)
Цензура: Отсутствует
Озвучка: Любительская (одноголосая, закадровая)
Субтитры: ENG-Режиссер: Yoshio Usuda
Студия: Milky, Kitty Media-Описание: Молодой парнишка находит сбитого мужчину и помогает ему добраться до больницы (тем самым как-бы спасая ему жизнь). Тут же появляется босс того самого сбитого человека и помимо благодарности за спасение сотрудника предложил работать вместо "недееспособного ныне" сотрудника. [Чем заманивал - не обратил внимание]. Паренёк согласился.
Далее - более. Работой (как я понял) оказался присмотр за будущими спортсменками-чемпионками по плаванью на отшибленном от всего мира острове. Завозят девочек, говорят что через некоторое время вернутся за ними и уплывают. Получилось же так, что прошлый "работник" поехал крышей и начал снимать на камеру свои извращения над молоденькими спортсменками. Новый же "работничек", нашёл эти плёнки и так увлёкся ихним просмотром, что тоже "двунулся" крышей...- -Источник: DVDRip
Контейнер: MKV
Видео кодек: XviD
Видео: 640х480 1000-1200 Kbps 23.976 fps
Аудио RUS: MP3 128 Kbps 48.0 KHz 2 channels
Аудио JAP: MP3 128 Kbps 48.0 KHz 2 channels
Аудио ENG: OGG Vorbis 48000Hz stereo 128 Kbps
Формат субтитров: softsub (SSA/ASS)-
Общее
Уникальный идентификатор : 236192818042278713932284563650263752604 (0xB1B11503F5E5E9D7BFE3D013B3A59F9C)
Полное имя : C:\Users\Ромик\Documents\пиратка\Хентай\Фруктовый кубок\Fruits Cup\Fruits.Cup.01.mkv
Формат : Matroska
Версия формата : Version 2
Размер файла : 317 Мбайт
Продолжительность : 23 м.
Режим общего битрейта : Переменный
Общий поток : 1850 Кбит/сек
Дата кодирования : UTC 2014-06-22 18:35:02
Программа кодирования : mkvmerge v5.6.0 ('Kenya Kane') built on Jun 29 2012 15:01:44
Библиотека кодирования : libebml v1.2.3 + libmatroska v1.3.0
Видео
Идентификатор : 1
Формат : MPEG-4 Visual
Профиль формата : Advanced [email protected]
Параметр BVOP формата : Нет
Параметр QPel формата : Нет
Параметр GMC формата : Без точки перехода
Параметр матрицы формата : Default (MPEG)
Идентификатор кодека : V_MS/VFW/FOURCC / XVID
Идентификатор кодека/Подсказка : XviD
Продолжительность : 23 м.
Битрейт : 1430 Кбит/сек
Ширина : 640 пикселей
Высота : 480 пикселей
Соотношение сторон : 4:3
Режим частоты кадров : Постоянный
Частота кадров : 23,976 кадра/сек
Цветовое пространство : YUV
Субдискретизация насыщенности : 4:2:0
Битовая глубина : 8 бит
Тип развёртки : Прогрессивная
Метод сжатия : С потерями
Бит/(Пиксели*Кадры) : 0.194
Размер потока : 245 Мбайт (77%)
Заголовок : Fruits Cup (XVID)
Библиотека кодирования : XviD 1.1.2 (UTC 2006-11-01)
Язык : English
Default : Да
Forced : Нет
Аудио #1
Идентификатор : 2
Формат : MPEG Audio
Версия формата : Version 1
Профиль формата : Layer 3
Режим : Joint stereo
Расширение режима : MS Stereo
Режим смешивания : Header stripping
Идентификатор кодека : A_MPEG/L3
Идентификатор кодека/Подсказка : MP3
Продолжительность : 23 м.
Вид битрейта : Постоянный
Битрейт : 128 Кбит/сек
Каналы : 2 канала
Частота : 48,0 КГц
Метод сжатия : С потерями
Размер потока : 21,9 Мбайт (7%)
Язык : Russian
Default : Да
Forced : Нет
Аудио #2
Идентификатор : 3
Формат : MPEG Audio
Версия формата : Version 1
Профиль формата : Layer 3
Режим : Joint stereo
Расширение режима : MS Stereo
Режим смешивания : Header stripping
Идентификатор кодека : A_MPEG/L3
Идентификатор кодека/Подсказка : MP3
Продолжительность : 23 м.
Вид битрейта : Постоянный
Битрейт : 128 Кбит/сек
Каналы : 2 канала
Частота : 48,0 КГц
Метод сжатия : С потерями
Размер потока : 21,9 Мбайт (7%)
Язык : Japanese
Default : Нет
Forced : Нет
Аудио #3
Идентификатор : 4
Формат : Vorbis
Параметр Floor формата : 1
Идентификатор кодека : A_VORBIS
Продолжительность : 23 м.
Вид битрейта : Переменный
Битрейт : 128 Кбит/сек
Каналы : 2 канала
Частота : 48,0 КГц
Метод сжатия : С потерями
Размер потока : 21,9 Мбайт (7%)
Библиотека кодирования : libVorbis 1.0.1 (UTC 2003-09-09)
Язык : English
Default : Нет
Forced : Нет
Программа кодирования : Made with BeSweet v1.5b30
Encoded_Application/Url : http://DSPguru.doom9.org
Текст
Идентификатор : 5
Формат : UTF-8
Идентификатор кодека : S_TEXT/UTF8
Идентификатор кодека/Информация : UTF-8 Plain Text
Заголовок : srt
Язык : English
Default : Да
Forced : Нет
-
-
-
Download / Скачать

Хотите скачать бесплатно? Зарегистрируйтесь на сайте (ссылка на регистрацию). Pirat.ca - самый быстрый торрент трекер в рунете!

Как скачивать  ·   Что такое торрент  ·   Рейтинг и ограничения

ross002

Штурман

Пост 08-Июл-2014 22:45 (спустя 15 дней)

[Q] 

Сейчас заценим Автору респект!!!
[Профиль]  [ЛС] 

mr.Figoro1

Морской Волк

Пост 05-Окт-2014 18:26 (спустя 2 месяца 27 дней)

[Q] 

художник слабоват))
[Профиль]  [ЛС] 

azorg

Морской Волк

Пост 02-Май-2018 23:16 (спустя 3 года 6 месяцев)

[Q] 

az спасибо
[Профиль]  [ЛС] 
Показать сообщения:    
Ответить на тему

Текущее время: Сегодня 15:25

Часовой пояс: GMT + 4



Вы не можете начинать темы
Вы не можете отвечать на сообщения
Вы не можете редактировать свои сообщения
Вы не можете удалять свои сообщения
Вы не можете голосовать в опросах
Вы не можете прикреплять файлы к сообщениям
Вы не можете скачивать файлы

Майнать ▼