[hentai] Вкус мёда / Bishoujo Comic Lolikon Angel: Mitsu no Aji [OVA] [1 из 1] [1985 г.] [uncen] [хентай, школа, лоликон.] [VHSRip] [RUS]

Ответить на тему
 
Автор
Сообщение

Пост 16-Июл-2012 18:24

[Q] 

NINJA_MASTER

Вкус мёда / Bishoujo Comic Lolikon Angel: Mitsu no Aji Год выпуска: 1985
Страна: Япония
Жанр: хентай, школа, лоликон.
Продолжительность: 00:21:56
Тип: OVA (OAV)
Озвучка: Любительская (одноголосая, закадровая) от VashMax2
Субтитры: отсутствуют
Режиссер: Неизвестно
Студия: Неизвестно
Описание: Три ученицы ведут расследование: у Юки-тян пропали деньги, пока класс был на физкультуре. С урока уходили двое их одноклассников – Мари-тян и Акихико-кун. Ну, и старый рабочий Ямай тоже мог зайти в аудиторию. Значит, подружкам надо проверить троих подозреваемых!..
Как знать, чем рискуют три плоскогрудых школьницы, приставая с расспросами и докучая подозрениями мальчишке, полоумному старцу и любимице учителя!
Loliconus senectus vulgaris, или, проще говоря, «Лоликон обыкновенный, доисторический». Без особых ужасов (если не считать ужасом неполовозрелый копулятив), без зверств (педагогический волюнтаризм не в счет) – и ни одна лолитка не погибла, не пострадала и, видимо, даже не огорчилась при съемках! © Анастасия Розанова

Источник: VHSRip
Формат: AVI
Видео кодек: DivX
Видео: Xvid 640x432 25,00fps 1339Kbps
Аудио RUS: AC3 MPEG Audio Layer 3 48000Hz stereo 192Kbps
General
Complete name : E:\TORENT\Lolicon Angel\Lolicon Angel.avi
Format : AVI
Format/Info : Audio Video Interleave
File size : 242 MiB
Duration : 21mn 56s
Overall bit rate : 1 544 Kbps
Writing application : Lavf52.0.0
Video
ID : 0
Format : xvid
Codec ID : xvid
Duration : 21mn 56s
Bit rate : 1 339 Kbps
Width : 640 pixels
Height : 432 pixels
Display aspect ratio : 3:2
Frame rate : 25.000 fps
Bits/(Pixel*Frame) : 0.194
Stream size : 210 MiB (87%)
Audio
ID : 1
Format : MPEG Audio
Format version : Version 1
Format profile : Layer 3
Mode : Joint stereo
Mode extension : MS Stereo
Codec ID : 55
Codec ID/Hint : MP3
Duration : 21mn 56s
Bit rate mode : Constant
Bit rate : 192 Kbps
Channel(s) : 2 channels
Sampling rate : 48.0 KHz
Compression mode : Lossy
Stream size : 30.1 MiB (12%)
Alignment : Aligned on interleaves
Interleave, duration : 24 ms (0.60 video frame)
Interleave, preload duration : 24 ms
1 ер.
Download / Скачать

Хотите скачать бесплатно? Зарегистрируйтесь на сайте (ссылка на регистрацию). Pirat.ca - самый быстрый торрент трекер в рунете!

Как скачивать  ·   Что такое торрент  ·   Рейтинг и ограничения

dmsushko

Корсар

173

Пост 16-Июл-2012 18:37 (спустя 13 минут)

[Q] 


_________________

[Профиль]  [ЛС] 

Пост 18-Июл-2012 00:31 (спустя 1 день 5 часов)

Топик был перенесен из форума Аниме (Видео) в форум Хентай (Основной раздел)

bota_nik
 

azorg

Морской Волк

Пост 02-Май-2018 23:26 (спустя 5 лет 9 месяцев)

[Q] 

Спасибо!!!
[Профиль]  [ЛС] 
Показать сообщения:    
Ответить на тему

Текущее время: Сегодня 00:24

Часовой пояс: GMT + 4



Вы не можете начинать темы
Вы не можете отвечать на сообщения
Вы не можете редактировать свои сообщения
Вы не можете удалять свои сообщения
Вы не можете голосовать в опросах
Вы не можете прикреплять файлы к сообщениям
Вы не можете скачивать файлы

Майнать ▼