Подлец (Михаил Левитин мл.) [2015 г., комедия, драма, HDTVRip] Original (RUS)

Ответить на тему
 
Автор
Сообщение

Пост 03-Фев-2018 12:59

[Q] 

aleksey99

--Подлец--«Что же тут смешного, мама?»-- Производство: Россия / Мосфильм, Киностудия "Курьер"
Год выпуска: 2015 г.
Жанр: комедия, драма
Продолжительность: 01:30:42--Российская премьера: 2 ноября 2017--Режиссер: Михаил Левитин мл.--В ролях: Ольга Левитина, Владимир Вдовиченков, Лев Дуров, Ольга Остроумова, Валентин Гафт, Жан Даниэль, Юрий Амиго, Маргарита Шубина, Александр Пожаров, Данила Шевченко, Юлия Куварзина, Сергей Фролов (II)--Описание: Главная героиня фильма Юлия красива, загадочна и… безнадёжно одинока. Она живёт вместе с мамой в доме, где царит настоящий культ покойного отца-военного, мощного, сурового человека. И редкого, судя по всему, идиота. Никто из встреченных Юлей мужчин не соответствует столь высокой планке. Но мама решительно настроена выдать дочь замуж.
И вот в один прекрасный день в их семье появляется красавец в парадной форме. Одна беда: он — не совсем тот, кем его считают. Или совсем не тот?-- --Качество видео: HDTVRip
Контейнер: AVI
Видео кодек: XviD
Аудио кодек: AC3
Видео: 720x400 (1.80:1), 25 fps, XviD build 50 ~1969 kbps avg, 0.27 bit/pixel
Аудио: 48 kHz, AC3 Dolby Digital, 2/0 (L,R) ch, ~192 kbps
Cубтитры: отсутствуют
Общее
Полное имя : H:\Torrent2\Podlec.2016.HDTVRip.avi
Формат : AVI
Формат/Информация : Audio Video Interleave
Размер файла : 1,38 Гбайт
Продолжительность : 1 ч. 30 м.
Общий поток : 2172 Кбит/сек
Программа кодирования : VirtualDubMod 1.5.10.3 | www.virtualdub-fr.org || (build 2550/release)
Библиотека кодирования : VirtualDub build 29808/release
Видео
Идентификатор : 0
Формат : MPEG-4 Visual
Профиль формата : Advanced [email protected]
Настройки формата : BVOP2
Параметр BVOP формата : 2
Параметр QPel формата : Нет
Параметр GMC формата : Без точки перехода
Параметр матрицы формата : Default (H.263)
Идентификатор кодека : XVID
Идентификатор кодека/Подсказка : XviD
Продолжительность : 1 ч. 30 м.
Битрейт : 1970 Кбит/сек
Ширина : 720 пикселей
Высота : 400 пикселей
Соотношение сторон : 16:9
Частота кадров : 25,000 кадров/сек
Цветовое пространство : YUV
Субдискретизация насыщенности : 4:2:0
Битовая глубина : 8 бит
Тип развёртки : Прогрессивная
Метод сжатия : С потерями
Бит/(Пиксели*Кадры) : 0.274
Размер потока : 1,25 Гбайт (91%)
Библиотека кодирования : XviD 1.2.1 (UTC 2008-12-04)
Аудио
Идентификатор : 1
Формат : MPEG Audio
Версия формата : Version 1
Профиль формата : Layer 3
Идентификатор кодека : 55
Идентификатор кодека/Подсказка : MP3
Продолжительность : 1 ч. 30 м.
Вид битрейта : Постоянный
Битрейт : 192 Кбит/сек
Каналы : 2 канала
Частота : 48,0 КГц
Частота кадров : 41,667 кадра/сек (1152 SPF)
Метод сжатия : С потерями
Размер потока : 125 Мбайт (9%)
Выравнивание : Соединение по промежуткам
Продолжительность промежутка : 40 мс. (1,00 видеокадр)
Время предзагрузки промежутка : 504 мс.
Библиотека кодирования : LAME3.99r
Настройки программы : -m s -V 4 -q 9 -lowpass 18.6 -b 192
Трейлер
Download / Скачать

Хотите скачать бесплатно? Зарегистрируйтесь на сайте (ссылка на регистрацию). Pirat.ca - самый быстрый торрент трекер в рунете!

Как скачивать  ·   Что такое торрент  ·   Рейтинг и ограничения

Skala973

Флибустьер

Пост 02-Май-2018 11:52 (спустя 2 месяца 26 дней)

[Q] 

фильм вообще отличный!!!
Смотрел от души прямо, цепляет и затягивает до конца!
Очень много тонких моментов общения на уровне духовного единения просматривается.
А по поводу героя Вдовиченко...
Слушайте, я тут в Адлере отдыха прошлым летом целый месяц, а потом в Абхазии ещё 3 недели захватил.
Реальная ситуация, там у них анклав из вот таких персонажей! Все поголовно!!! Это как заговорённая территория. Особенно в отношении титульного этноса!
Никогда я не был нацистом(!), но после знакомства с этой народностью титульной, даже удивляюсь, как они друг друга ещё не по убивали!
Ну ладно. Вот перед тем как ехать на юг, особенно в Абхазию, на отдых. Обязательно смотрите фильм "Подлец", обязательно!!!
[Профиль]  [ЛС] 

_8165

Корсар

Пост 04-Май-2018 18:23 (спустя 2 дня 6 часов)

[Q] 

Спасибо фильм супер Супер! Лови бочку
[Профиль]  [ЛС] 
Показать сообщения:    
Ответить на тему

Текущее время: Сегодня 09:28

Часовой пояс: GMT + 4



Вы не можете начинать темы
Вы не можете отвечать на сообщения
Вы не можете редактировать свои сообщения
Вы не можете удалять свои сообщения
Вы не можете голосовать в опросах
Вы не можете прикреплять файлы к сообщениям
Вы не можете скачивать файлы

Майнать ▼