(Progressive Rock) Black Page - Open The Next Page - 1986 - 2018 [FLAC, tracks+.cue, lossless]

Ответить на тему
 
Автор
Сообщение

Пост 05-Май-2018 02:09

[Q] 

Дядя Вова

Гроза морей

-Black Page - Open The Next Page-- Год издания: 2018 - 1986
Страна: Japan
Жанр: Progressive Rock
Продолжительность: 00:40:02-Лейбл издания:King Record Co.
Тип альбома: Remaster
Страна-выпуска диска: Japan
Номер по каталогу: KICS3613
Формат: FLAC
Битрейт аудио: lossless
Тип рипа: tracks+.cue
Наличие сканов в содержимом раздачи: да-
1. Go On!
2. A Stick & The Moon
3. Lap Lap
4. From A Long Distance
5. Elegy (Ode To S.I.)
6. Suite: A Story Of Music Stone
6.1. Prelude
6.2. Looking For
6.3. A Long Journey
6.4. So Long
-
7. Paranoia
8. Interlude
9. Oyasumi
Exact Audio Copy V1.0 beta 3 from 29. August 2011
EAC extraction logfile from 15. April 2018, 9:45
Black Page / Open The Next Page
Used drive : MATSHITADVD+-RW UJ8E2 Adapter: 0 ID: 0
Read mode : Secure
Utilize accurate stream : Yes
Defeat audio cache : Yes
Make use of C2 pointers : No
Read offset correction : 103
Overread into Lead-In and Lead-Out : No
Fill up missing offset samples with silence : Yes
Delete leading and trailing silent blocks : No
Null samples used in CRC calculations : Yes
Used interface : Native Win32 interface for Win NT & 2000
Gap handling : Appended to previous track
Used output format : User Defined Encoder
Selected bitrate : 768 kBit/s
Quality : High
Add ID3 tag : No
Command line compressor : C:\Program Files (x86)\Exact Audio Copy\FLAC\FLAC.EXE
Additional command line options : -8 -V -T "ARTIST=%artist%" -T "TITLE=%title%" -T "ALBUM=%albumtitle%" -T "DATE=%year%" -T "TRACKNUMBER=%tracknr%" -T "TOTALTRACKS=%numtracks%" -T "GENRE=%genre%" -T "ALBUMARTIST=%albumartist%" -T "ALBUM ARTIST=%albumartist%" -T "COMMENT=EAC Secure Mode, Test & Copy, AccurateRip, FLAC -8" %source%
TOC of the extracted CD
Track | Start | Length | Start sector | End sector
---------------------------------------------------------
1 | 0:00.00 | 4:48.63 | 0 | 21662
2 | 4:48.63 | 4:51.00 | 21663 | 43487
3 | 9:39.63 | 4:35.38 | 43488 | 64150
4 | 14:15.26 | 1:42.49 | 64151 | 71849
5 | 15:58.00 | 5:16.62 | 71850 | 95611
6 | 21:14.62 | 7:18.42 | 95612 | 128503
7 | 28:33.29 | 3:28.59 | 128504 | 144162
8 | 32:02.13 | 1:50.31 | 144163 | 152443
9 | 33:52.44 | 6:14.69 | 152444 | 180562
Track 1
Filename C:\bzp01\Black Page - Open The Next Page (1986) [FLAC] {2018 KICS3613}\01 - Go On.wav
Pre-gap length 0:00:02.00
Peak level 99.9 %
Extraction speed 2.0 X
Track quality 99.9 %
Test CRC 1BDF359C
Copy CRC 1BDF359C
Track not present in AccurateRip database
Copy OK
Track 2
Filename C:\bzp01\Black Page - Open The Next Page (1986) [FLAC] {2018 KICS3613}\02 - A Stick And The Moon.wav
Pre-gap length 0:00:00.35
Peak level 99.9 %
Extraction speed 2.8 X
Track quality 100.0 %
Test CRC 41F7C940
Copy CRC 41F7C940
Track not present in AccurateRip database
Copy OK
Track 3
Filename C:\bzp01\Black Page - Open The Next Page (1986) [FLAC] {2018 KICS3613}\03 - Lap Lap.wav
Pre-gap length 0:00:01.37
Peak level 99.9 %
Extraction speed 3.1 X
Track quality 100.0 %
Test CRC 21B2FC10
Copy CRC 21B2FC10
Track not present in AccurateRip database
Copy OK
Track 4
Filename C:\bzp01\Black Page - Open The Next Page (1986) [FLAC] {2018 KICS3613}\04 - From A Long Distance.wav
Peak level 69.8 %
Extraction speed 2.7 X
Track quality 100.0 %
Test CRC 5149C452
Copy CRC 5149C452
Track not present in AccurateRip database
Copy OK
Track 5
Filename C:\bzp01\Black Page - Open The Next Page (1986) [FLAC] {2018 KICS3613}\05 - Elegy - Ode To SI.wav
Peak level 99.9 %
Extraction speed 3.5 X
Track quality 100.0 %
Test CRC 711C0DA4
Copy CRC 711C0DA4
Track not present in AccurateRip database
Copy OK
Track 6
Filename C:\bzp01\Black Page - Open The Next Page (1986) [FLAC] {2018 KICS3613}\06 - Suite A Story Of Music Stone.wav
Pre-gap length 0:00:02.68
Peak level 99.9 %
Extraction speed 3.3 X
Track quality 99.9 %
Test CRC 0FE1C280
Copy CRC 0FE1C280
Track not present in AccurateRip database
Copy OK
Track 7
Filename C:\bzp01\Black Page - Open The Next Page (1986) [FLAC] {2018 KICS3613}\07 - Paranoia.wav
Pre-gap length 0:00:03.64
Peak level 99.9 %
Extraction speed 2.8 X
Track quality 99.9 %
Test CRC FC47F975
Copy CRC FC47F975
Track not present in AccurateRip database
Copy OK
Track 8
Filename C:\bzp01\Black Page - Open The Next Page (1986) [FLAC] {2018 KICS3613}\08 - Interlude.wav
Peak level 34.7 %
Extraction speed 3.4 X
Track quality 100.0 %
Test CRC 628F359C
Copy CRC 628F359C
Track not present in AccurateRip database
Copy OK
Track 9
Filename C:\bzp01\Black Page - Open The Next Page (1986) [FLAC] {2018 KICS3613}\09 - Oyasumi.wav
Peak level 99.8 %
Extraction speed 4.4 X
Track quality 100.0 %
Test CRC C64592D0
Copy CRC C64592D0
Track not present in AccurateRip database
Copy OK
None of the tracks are present in the AccurateRip database
No errors occurred
End of status report
==== Log checksum C8590E3C535EC396E3132C7556569431BA9D1A9D3B99C3367C6920E5D924537D ====
REM GENRE "Progressive Rock"
REM DATE 1986
REM DISCID 75096709
REM COMMENT "ExactAudioCopy v1.0b3"
PERFORMER "Black Page"
TITLE "Open The Next Page"
FILE "01 - Go On.wav" WAVE
TRACK 01 AUDIO
TITLE "Go On"
PERFORMER "Black Page"
INDEX 01 00:00:00
TRACK 02 AUDIO
TITLE "A Stick And The Moon"
PERFORMER "Black Page"
INDEX 00 04:48:28
FILE "02 - A Stick And The Moon.wav" WAVE
INDEX 01 00:00:00
TRACK 03 AUDIO
TITLE "Lap Lap"
PERFORMER "Black Page"
INDEX 00 04:49:38
FILE "03 - Lap Lap.wav" WAVE
INDEX 01 00:00:00
FILE "04 - From A Long Distance.wav" WAVE
TRACK 04 AUDIO
TITLE "From A Long Distance"
PERFORMER "Black Page"
INDEX 01 00:00:00
FILE "05 - Elegy - Ode To SI.wav" WAVE
TRACK 05 AUDIO
TITLE "Elegy - Ode To SI"
PERFORMER "Black Page"
INDEX 01 00:00:00
TRACK 06 AUDIO
TITLE "Suite A Story Of Music Stone"
PERFORMER "Black Page"
INDEX 00 05:13:69
FILE "06 - Suite A Story Of Music Stone.wav" WAVE
INDEX 01 00:00:00
TRACK 07 AUDIO
TITLE "Paranoia"
PERFORMER "Black Page"
INDEX 00 07:14:53
FILE "07 - Paranoia.wav" WAVE
INDEX 01 00:00:00
FILE "08 - Interlude.wav" WAVE
TRACK 08 AUDIO
TITLE "Interlude"
PERFORMER "Black Page"
INDEX 01 00:00:00
FILE "09 - Oyasumi.wav" WAVE
TRACK 09 AUDIO
TITLE "Oyasumi"
PERFORMER "Black Page"
INDEX 01 00:00:00
Download / Скачать

Хотите скачать бесплатно? Зарегистрируйтесь на сайте (ссылка на регистрацию). Pirat.ca - самый быстрый торрент трекер в рунете!

Как скачивать  ·   Что такое торрент  ·   Рейтинг и ограничения

Показать сообщения:    
Ответить на тему

Текущее время: Сегодня 22:45

Часовой пояс: GMT + 4



Вы не можете начинать темы
Вы не можете отвечать на сообщения
Вы не можете редактировать свои сообщения
Вы не можете удалять свои сообщения
Вы не можете голосовать в опросах
Вы не можете прикреплять файлы к сообщениям
Вы не можете скачивать файлы

Майнать ▼